<?xml version="1.0" standalone="no"?>
<!DOCTYPE svg PUBLIC "-//W3C//DTD SVG 1.1//EN" "http://www.w3.org/Graphics/SVG/1.1/DTD/svg11.dtd" >
<svg xmlns="http://www.w3.org/2000/svg">
  <metadata>Created by iconfont</metadata>
  <defs>
  <font id="iconfont" horiz-adv-x="1024">
    <font-face
      font-family="iconfont"
      font-weight="400"
      font-stretch="normal"
      units-per-em="1024"
      ascent="896"
      descent="-128"
    />
      <missing-glyph />
      
      <glyph glyph-name="wanqudecurved14" unicode="&#59153;" d="M501.00224 577.6384l188.91776 0L559.80032 707.74784c-13.96736 13.96736-13.96736 36.7104 0 50.67776 13.52704 13.53728 37.15072 13.53728 50.67776 0l191.29344-191.29344c6.76864-6.76864 10.496-15.7696 10.496-25.344s-3.72736-18.57536-10.496-25.344L610.48832 325.16096c-13.52704-13.53728-37.13024-13.55776-50.688 0-13.96736 13.96736-13.96736 36.7104 0 50.67776L689.92 505.9584 501.00224 505.9584c-119.98208 0-217.6-97.61792-217.6-217.6s97.61792-217.6 217.6-217.6l102.4 0c16.96768 0 30.72-13.75232 30.72-30.72l0-10.24c0-16.96768-13.75232-30.72-30.72-30.72l-102.4 0c-159.50848 0-289.28 129.77152-289.28 289.28S341.49376 577.6384 501.00224 577.6384z"  horiz-adv-x="1024" />
      
      <glyph glyph-name="renyuan" unicode="&#58950;" d="M514.5 418.7c-63.3 0-122.9 24.7-167.7 69.5-44.8 44.8-69.5 104.4-69.5 167.7S302 778.7 346.8 823.5 451.2 893 514.5 893c63.3 0 122.9-24.7 167.7-69.5 44.8-44.8 69.5-104.4 69.5-167.7S727 532.9 682.2 488.1c-44.8-44.8-104.4-69.4-167.7-69.4z m0 394.3c-86.7 0-157.2-70.5-157.2-157.2s70.5-157.2 157.2-157.2c86.7 0 157.2 70.5 157.2 157.2S601.2 813 514.5 813zM883.6-127c-22.1 0-40 17.9-40 40V119.8c0 88.2-71.8 160-160 160H345.4c-88.2 0-160-71.8-160-160V-87c0-22.1-17.9-40-40-40s-40 17.9-40 40V119.8c0 64.1 25 124.4 70.3 169.7 45.3 45.3 105.6 70.3 169.7 70.3h338.1c64.1 0 124.4-25 169.7-70.3 45.3-45.3 70.3-105.6 70.3-169.7V-87c0.1-22.1-17.8-40-39.9-40zM285-127c-22.1 0-40 17.9-40 40v96c0 22.1 17.9 40 40 40s40-17.9 40-40v-96c0-22.1-17.9-40-40-40zM744-127c-22.1 0-40 17.9-40 40v96c0 22.1 17.9 40 40 40s40-17.9 40-40v-96c0-22.1-17.9-40-40-40z"  horiz-adv-x="1024" />
      
      <glyph glyph-name="lunchuan" unicode="&#58995;" d="M958.506667 347.946667a64 64 0 0 1-57.6 36.053333h-104.32v170.666667a21.333333 21.333333 0 0 1-42.666667 0v-170.666667h-42.666667V618.666667a21.333333 21.333333 0 0 1-42.666666 0v-234.666667h-33.706667l-109.226667 109.226667a64 64 0 0 1-45.44 18.773333h-100.266666l-87.466667 104.96a64 64 0 0 1-49.066667 23.04h-22.826666V704a21.333333 21.333333 0 1 1-42.666667 0v-64a64 64 0 0 1-64-64v-192A64 64 0 0 1 64 353.706667a64 64 0 0 1-2.346667-64s56.746667-101.546667 95.146667-169.386667A85.333333 85.333333 0 0 1 239.786667 42.666667a82.986667 82.986667 0 0 1 61.866666 27.52 82.986667 82.986667 0 0 1 123.733334 0 83.2 83.2 0 0 1 123.733333 0 82.986667 82.986667 0 0 1 123.733333 0 82.773333 82.773333 0 0 1 144.426667 49.28c42.666667 51.413333 133.546667 160.64 133.76 161.066666a64 64 0 0 1 7.466667 67.413334zM156.586667 576a21.333333 21.333333 0 0 0 21.333333 21.333333h65.28a21.333333 21.333333 0 0 0 16.426667-7.68l64-77.653333H156.586667v64z m258.986666-106.666667h64a21.333333 21.333333 0 0 0 15.146667-6.186666L574.506667 384H156.586667v85.333333h258.986666zM917.333333 307.2s-96.64-116.693333-137.813333-165.546667a21.333333 21.333333 0 0 1-4.906667-15.146666 40.533333 40.533333 0 1 0-81.066666 0 21.333333 21.333333 0 0 1-42.666667 0 40.533333 40.533333 0 1 0-81.066667 0 21.333333 21.333333 0 0 1-42.666666 0 40.533333 40.533333 0 1 0-81.066667 0 21.333333 21.333333 0 0 1-42.666667 0 40.533333 40.533333 0 1 0-81.066666 0 21.333333 21.333333 0 0 1-42.666667 0 40.533333 40.533333 0 0 0-40.533333-40.533334 42.666667 42.666667 0 0 0-40.533334 42.666667v1.28a36.266667 36.266667 0 0 1-2.133333 8.106667v1.066666c-38.186667 67.413333-96.64 171.946667-96.64 171.946667a21.333333 21.333333 0 0 0 19.2 30.293333h781.866667a21.333333 21.333333 0 0 0 19.2-11.946666A21.333333 21.333333 0 0 0 917.333333 307.2zM220.586667 277.333333m-21.333334 0a21.333333 21.333333 0 1 1 42.666667 0 21.333333 21.333333 0 1 1-42.666667 0ZM305.92 277.333333m-21.333333 0a21.333333 21.333333 0 1 1 42.666666 0 21.333333 21.333333 0 1 1-42.666666 0ZM391.253333 277.333333m-21.333333 0a21.333333 21.333333 0 1 1 42.666667 0 21.333333 21.333333 0 1 1-42.666667 0ZM476.586667 277.333333m-21.333334 0a21.333333 21.333333 0 1 1 42.666667 0 21.333333 21.333333 0 1 1-42.666667 0ZM561.92 277.333333m-21.333333 0a21.333333 21.333333 0 1 1 42.666666 0 21.333333 21.333333 0 1 1-42.666666 0ZM647.253333 277.333333m-21.333333 0a21.333333 21.333333 0 1 1 42.666667 0 21.333333 21.333333 0 1 1-42.666667 0ZM732.586667 277.333333m-21.333334 0a21.333333 21.333333 0 1 1 42.666667 0 21.333333 21.333333 0 1 1-42.666667 0ZM817.92 277.333333m-21.333333 0a21.333333 21.333333 0 1 1 42.666666 0 21.333333 21.333333 0 1 1-42.666666 0Z"  horiz-adv-x="1024" />
      
      <glyph glyph-name="zhiyejiankang" unicode="&#58933;" d="M289.655467 349.525333l41.813333 120.900267c12.0832 32.4608 58.0608 31.607467 68.949333-1.297067l76.219734-229.819733 147.2 414.3616c12.356267 34.730667 62.173867 31.607467 70.144-4.420267l66.781866-302.011733L955.733333 349.525333V751.616c0 20.292267-21.248 42.222933-41.454933 42.222933l-804.5568-5.461333v5.461333c-20.206933 0-40.96-21.930667-40.96-42.24l-0.682667-214.0672c0-20.309333-13.499733-34.048-33.706666-34.048C14.1824 503.466667 0 517.205333 0 537.514667V751.581867C0 812.509867 49.117867 861.866667 109.7216 861.866667H914.261333C974.865067 861.866667 1024 812.4928 1024 751.581867v-735.163734C1024-44.509867 974.882133-93.866667 914.2784-93.866667H109.738667C49.134933-93.866667 0-44.4928 0 16.418133V315.562667c0 20.309333 14.165333 33.962667 34.372267 33.962666h255.2832zM68.778667 11.127467c0-20.309333 15.7184-36.744533 35.754666-36.744534h814.933334C939.502933-25.6 955.733333-9.147733 955.733333 11.144533V281.7024H738.56c-16.9984 0-35.157333 10.103467-38.826667 26.914133L657.476267 503.466667l-139.042134-394.410667c-11.605333-32.887467-57.668267-32.4096-68.5568 0.733867l-76.407466 232.209066-15.2064-33.3824c-5.290667-14.336-19.114667-26.897067-34.2528-26.914133H68.778667v-270.557867z"  horiz-adv-x="1024" />
      
      <glyph glyph-name="yujing" unicode="&#59159;" d="M744.694714 94.87119l0.204657 372.168282c0 63.034276-24.763466 122.487059-69.68562 167.409214-44.922154 44.922154-103.249325 69.68562-166.283601 69.68562-63.034276 0-122.487059-24.763466-167.409214-69.68562-44.922154-44.922154-69.68562-104.374938-69.68562-167.409214l0.306985-372.065954-63.136604-0.102328-0.61397 372.065954c0 40.419706 7.981613 79.7138 23.740182 116.858999 15.144599 35.712601 36.838213 67.843709 64.466873 95.472369s59.759768 49.322274 95.472369 64.466873c37.04287 15.758569 76.336964 23.740182 116.75667 23.740182 40.419706 0 78.588188-7.981613 115.631058-23.740182 35.712601-15.144599 67.843709-36.838213 95.472369-64.466873s49.322274-59.759768 64.466873-95.472369c15.758569-37.04287 23.740182-76.336964 23.740182-116.654342l0-372.065954L744.694714 94.87119zM871.274908 32.860198 152.520436 32.860198c-17.498151 0-31.721795 14.223643-31.721795 31.721795s14.223643 31.721795 30.596183 31.721795l718.754472 0c18.623763 0 32.847407-14.223643 32.847407-31.721795S888.773059 32.860198 871.274908 32.860198zM608.495653 399.195763 527.860897 399.195763 527.860897 574.484261 413.150794 359.287699 496.650744 359.287699 496.650744 191.980813Z"  horiz-adv-x="1024" />
      
      <glyph glyph-name="gongdanqueren" unicode="&#60470;" d="M832 864H192C139.072 864 96 820.928 96 768v-768c0-52.928 43.072-96 96-96h640c52.928 0 96 43.072 96 96V768c0 52.928-43.072 96-96 96zM320 800h384v-96H320V800z m544-800a32 32 0 0 0-32-32H192c-17.632 0-32 14.336-32 32V768c0 17.632 14.368 32 32 32h64v-96c0-35.296 28.704-64 64-64h384c35.296 0 64 28.704 64 64V800h64c17.664 0 32-14.368 32-32v-768zM719.072 528.96l-249.376-249.376-120.256 120.288a31.968 31.968 0 1 1-45.248-45.248l142.88-142.912a32 32 0 0 1 45.248 0l272 272a31.968 31.968 0 1 1-45.248 45.248z"  horiz-adv-x="1024" />
      
      <glyph glyph-name="tingjiguanli" unicode="&#58893;" d="M512 477.090909c-27.927273 0-46.545455 18.618182-46.545455 46.545455V849.454545c0 27.927273 18.618182 46.545455 46.545455 46.545455s46.545455-18.618182 46.545455-46.545455v-325.818181c0-27.927273-18.618182-46.545455-46.545455-46.545455zM474.763636-123.345455c-200.145455 13.963636-377.018182 167.563636-414.254545 367.709091C23.272727 439.854545 116.363636 635.345455 279.272727 733.090909c27.927273 13.963636 55.854545 0 69.818182-23.272727 9.309091-23.272727 0-46.545455-18.618182-60.509091-139.636364-83.781818-218.763636-251.345455-167.563636-418.909091 37.236364-134.981818 153.6-237.381818 293.236364-260.654545 228.072727-37.236364 428.218182 139.636364 428.218181 363.054545 0 130.327273-69.818182 251.345455-181.527272 316.509091-27.927273 13.963636-37.236364 37.236364-27.927273 60.509091 9.309091 23.272727 41.890909 37.236364 65.163636 23.272727 139.636364-83.781818 228.072727-232.727273 228.072728-395.636364 4.654545-269.963636-223.418182-484.072727-493.381819-460.8z"  horiz-adv-x="1024" />
      
      <glyph glyph-name="liebiaoxingshi" unicode="&#59202;" d="M896.021502 640.043004 607.897867 640.043004c-17.717453 0-31.994625 14.277171-31.994625 31.994625 0 17.717453 14.277171 31.994625 31.994625 31.994625l287.951621 0c17.717453 0 31.994625-14.277171 31.994625-31.994625C928.016126 654.320175 913.738955 640.043004 896.021502 640.043004zM896.021502 480.069881 607.897867 480.069881c-17.717453 0-31.994625 14.277171-31.994625 31.994625s14.277171 31.994625 31.994625 31.994625l287.951621 0c17.717453 0 31.994625-14.277171 31.994625-31.994625S913.738955 480.069881 896.021502 480.069881zM896.021502 223.94087 607.897867 223.94087c-17.717453 0-31.994625 14.277171-31.994625 31.994625s14.277171 31.994625 31.994625 31.994625l287.951621 0c17.717453 0 31.994625-14.277171 31.994625-31.994625S913.738955 223.94087 896.021502 223.94087zM896.021502 63.967747 607.897867 63.967747c-17.717453 0-31.994625 14.277171-31.994625 31.994625s14.277171 31.994625 31.994625 31.994625l287.951621 0c17.717453 0 31.994625-14.277171 31.994625-31.994625S913.738955 63.967747 896.021502 63.967747zM383.935495 416.080632 191.967747 416.080632c-52.980346 0-95.983874 43.003528-95.983874 95.983874L95.983874 704.032253c0 52.980346 43.003528 95.983874 95.983874 95.983874l191.967747 0c52.980346 0 95.983874-43.003528 95.983874-95.983874l0-191.967747C479.919368 459.084159 436.915841 416.080632 383.935495 416.080632zM191.967747 736.026877c-17.545439 0-31.994625-14.449185-31.994625-31.994625l0-191.967747c0-17.545439 14.449185-31.994625 31.994625-31.994625l191.967747 0c17.545439 0 31.994625 14.449185 31.994625 31.994625L415.930119 704.032253c0 17.545439-14.449185 31.994625-31.994625 31.994625L191.967747 736.026877 191.967747 736.026877zM383.935495-32.016126 191.967747-32.016126c-52.980346 0-95.983874 43.003528-95.983874 95.983874L95.983874 256.107509c0 52.980346 43.003528 95.983874 95.983874 95.983874l191.967747 0c52.980346 0 95.983874-43.003528 95.983874-95.983874l0-191.967747C479.919368 11.159415 436.915841-32.016126 383.935495-32.016126zM191.967747 288.102133c-17.545439 0-31.994625-14.277171-31.994625-31.994625l0-191.967747c0-17.717453 14.449185-31.994625 31.994625-31.994625l191.967747 0c17.545439 0 31.994625 14.277171 31.994625 31.994625L415.930119 256.107509c0 17.717453-14.449185 31.994625-31.994625 31.994625L191.967747 288.102133 191.967747 288.102133z"  horiz-adv-x="1024" />
      
      <glyph glyph-name="shuanglieliebiao" unicode="&#59109;" d="M433.1 416 174.9 416c-25.9 0-46.9 21-46.9 46.9L128 721.1c0 25.9 21 46.9 46.9 46.9l258.2 0c25.9 0 46.9-21 46.9-46.9l0-258.2C480 437 459 416 433.1 416zM433.1 0 174.9 0c-25.9 0-46.9 21-46.9 46.9L128 305.1c0 25.9 21 46.9 46.9 46.9l258.2 0c25.9 0 46.9-21 46.9-46.9l0-258.2C480 21 459 0 433.1 0zM849.1 416 590.9 416c-25.9 0-46.9 21-46.9 46.9L544 721.1c0 25.9 21 46.9 46.9 46.9l258.2 0c25.9 0 46.9-21 46.9-46.9l0-258.2C896 437 875 416 849.1 416zM849.1 0 590.9 0c-25.9 0-46.9 21-46.9 46.9L544 305.1c0 25.9 21 46.9 46.9 46.9l258.2 0c25.9 0 46.9-21 46.9-46.9l0-258.2C896 21 875 0 849.1 0z"  horiz-adv-x="1024" />
      
      <glyph glyph-name="jiankangxian" unicode="&#58918;" d="M511.823448-31.073103L122.703448 320.088276C30.366897 414.366897 9.004138 532.126897 64.088276 643.531034c46.609655 94.455172 142.124138 155.365517 243.111724 155.365518h1.412414c71.856552 0 156.601379-46.08 205.153103-76.8 56.32 33.544828 141.594483 76.8 203.917242 76.8h1.235862c102.223448 0 195.266207-59.674483 242.75862-155.542069 51.906207-105.048276 31.77931-219.10069-56.849655-321.324138l-3.884138-3.884138c-130.471724-117.583448-359.635862-322.913103-359.635862-322.913104l-29.484138-26.306206zM184.673103 382.94069L512 87.746207c65.677241 58.791724 225.986207 202.504828 327.856552 294.311724 44.491034 52.082759 87.216552 132.413793 42.725517 222.278621-32.485517 65.677241-95.337931 106.46069-164.016552 106.460689h-0.529655c-34.251034 0-106.46069-31.073103-180.25931-77.329655l-3.177931-1.942069-21.539311-12.182069-21.53931 12.182069c-0.353103 0.176552-2.118621 1.235862-4.943448 3.177931-54.201379 37.075862-130.118621 76.270345-178.670345 76.093793-68.148966 0-132.413793-41.842759-164.546207-106.460689-37.958621-76.446897-23.128276-155.012414 41.313103-221.395862zM670.543448 426.372414h-123.586207v132.413793h-70.620689v-132.413793h-123.586207v-52.965517h123.586207v-132.413794h70.620689v132.413794h123.586207z"  horiz-adv-x="1024" />
      
      <glyph glyph-name="wancheng" unicode="&#58882;" d="M832 192a42.666667 42.666667 0 0 1-42.666667-42.666667v-106.666666H170.666667V725.333333h618.666666v-226.133333a42.666667 42.666667 0 0 1 85.333334 0V729.6A83.2 83.2 0 0 1 789.333333 810.666667H170.666667a83.2 83.2 0 0 1-85.333334-81.066667v-691.2A83.413333 83.413333 0 0 1 170.666667-42.666667h618.666666a83.413333 83.413333 0 0 1 85.333334 81.066667V149.333333a42.666667 42.666667 0 0 1-42.666667 42.666667zM682.666667 554.666667a42.666667 42.666667 0 0 1-42.666667 42.666666H298.666667a42.666667 42.666667 0 0 1 0-85.333333h341.333333a42.666667 42.666667 0 0 1 42.666667 42.666667zM298.666667 384a42.666667 42.666667 0 0 1 0-85.333333h213.333333a42.666667 42.666667 0 0 1 0 85.333333zM921.386667 404.266667a42.666667 42.666667 0 0 1-60.373334 0L649.813333 192l-60.16 60.373333A42.666667 42.666667 0 0 1 529.28 192l90.453333-90.453333a42.666667 42.666667 0 0 1 60.373334 0l241.28 242.346666a42.666667 42.666667 0 0 1 0 60.373334z"  horiz-adv-x="1024" />
      
      <glyph glyph-name="qiehuan" unicode="&#58967;" d="M511.48 873.38c-270.42 0-489.62-218.96-489.62-489.09s219.2-489.09 489.62-489.09 489.61 218.96 489.61 489.09S781.89 873.38 511.48 873.38zM211.83 460.44c-0.11 0.19-0.11 0.49-0.23 0.71l-0.3 1.2c0 0.23-0.11 0.42-0.11 0.6l-0.3 1.32c0 0.3-0.11 0.49-0.11 0.68-0.08 0.42-0.08 0.94-0.19 1.32 0 0.3-0.12 0.53-0.12 0.83 0 0.37-0.11 0.79-0.11 1.2-0.07 0.26-0.07 0.68-0.07 1.01v-0.04c0 0.3-0.11 0.6 0 1.13-0.11 0.6-0.11 1.32-0.11 2 0 0.71 0.11 1.32 0.11 2.03l0.07 0.98 0.11 1.02c0 0.41 0 0.83 0.12 1.2 0 0.3 0.11 0.53 0.11 0.83 0.01 0.43 0.08 0.86 0.19 1.28 0 0.34 0.11 0.53 0.11 0.71l0.3 1.31c0 0.23 0 0.42 0.11 0.6l0.3 1.2c0.11 0.19 0.11 0.49 0.22 0.68 0.07 0.34 0.3 0.75 0.41 1.13l0.3 0.83c0.11 0.3 0.3 0.68 0.38 0.98l0.38 0.9c0.07 0.3 0.26 0.6 0.37 0.91 0.08 0.3 0.23 0.71 0.45 1.02 0.19 0.22 0.26 0.53 0.38 0.68 0.11 0.45 0.3 0.75 0.53 1.13 0.17 0.17 0.31 0.38 0.41 0.6 0.19 0.42 0.42 0.71 0.64 1.13 0.16 0.17 0.28 0.36 0.38 0.56 0.22 0.42 0.53 0.75 0.75 1.13 0.08 0.22 0.3 0.42 0.42 0.6l0.83 1.13 0.49 0.6c0.23 0.3 0.41 0.6 0.72 0.9 0.22 0.3 0.53 0.49 0.75 0.79 0.22 0.19 0.42 0.53 0.6 0.71l1.47 1.51 99.24 96.46c16.73 16.11 43.23 16.11 59.96 0 16.57-16.1 16.57-42.14 0-58.24l-26.93-26.15h413.09c23.5 0 42.44-18.51 42.44-41.23 0-22.84-19.06-41.27-42.44-41.27H252.39c-0.6 0-1.32 0.12-2.07 0.12l-0.9 0.11-1.06 0.07c-0.42-0.01-0.84 0.02-1.24 0.11-0.3 0-0.53 0.11-0.83 0.11-0.44 0.02-0.89 0.08-1.32 0.19-0.34 0-0.53 0.11-0.76 0.11l-1.32 0.3c-0.34 0.08-0.53 0.08-0.75 0.19l-1.2 0.3c-0.23 0.11-0.56 0.11-0.76 0.23l-1.13 0.37-0.83 0.34-1.06 0.38-0.9 0.3-0.94 0.42c-0.3 0.08-0.71 0.19-1.02 0.42-0.22 0.19-0.53 0.26-0.75 0.37-0.38 0.11-0.76 0.3-1.13 0.53-0.19 0.16-0.41 0.29-0.64 0.38l-1.13 0.6c-0.19 0.16-0.41 0.29-0.64 0.37-0.38 0.23-0.72 0.53-1.13 0.76-0.23 0.08-0.41 0.3-0.6 0.37l-1.13 0.83-0.64 0.45-0.94 0.75c-0.3 0.19-0.49 0.49-0.79 0.68l-0.75 0.6c-0.49 0.53-1.02 0.91-1.55 1.43-0.53 0.49-0.94 1.02-1.43 1.5-0.22 0.19-0.42 0.49-0.6 0.72-0.23 0.3-0.57 0.49-0.75 0.79-0.23 0.3-0.53 0.6-0.72 0.91l-0.53 0.6c-0.3 0.37-0.64 0.71-0.86 1.13-0.07 0.19-0.27 0.37-0.38 0.56-0.22 0.41-0.53 0.75-0.75 1.13-0.19 0.22-0.3 0.41-0.38 0.6l-0.64 1.09-0.41 0.64c-0.11 0.37-0.3 0.68-0.53 1.05-0.19 0.22-0.3 0.52-0.41 0.75-0.07 0.3-0.3 0.68-0.41 0.98-0.08 0.3-0.3 0.6-0.42 0.9l-0.3 0.94-0.42 1.02-0.3 0.75c-0.22 0.35-0.3 0.76-0.41 1.14z m600.83-166.18l-0.07-1.02-0.11-1.02c0-0.38 0-0.79-0.11-1.2 0-0.3-0.12-0.49-0.12-0.79-0.01-0.44-0.08-0.89-0.19-1.32 0-0.3-0.11-0.49-0.11-0.68l-0.3-1.32c0-0.23 0-0.41-0.11-0.6l-0.3-1.2c-0.12-0.23-0.12-0.53-0.23-0.72-0.08-0.34-0.3-0.71-0.41-1.09-0.08-0.34-0.19-0.53-0.3-0.83l-0.38-1.02-0.37-0.9c-0.07-0.3-0.27-0.61-0.38-0.91-0.08-0.3-0.22-0.68-0.45-0.98-0.19-0.22-0.26-0.53-0.37-0.71-0.12-0.38-0.3-0.71-0.53-1.13-0.19-0.19-0.3-0.38-0.42-0.56-0.19-0.41-0.41-0.75-0.64-1.13-0.19-0.22-0.3-0.42-0.38-0.6-0.22-0.38-0.53-0.71-0.75-1.13-0.08-0.19-0.3-0.38-0.42-0.56-0.3-0.41-0.49-0.75-0.83-1.13l-0.49-0.6c-0.23-0.3-0.42-0.6-0.76-0.91-0.3-0.3-0.49-0.6-0.83-0.9-0.22-0.19-0.41-0.53-0.6-0.71l-1.47-1.51-99.28-96.46c-16.53-16.1-43.31-16.1-59.88 0s-16.57 42.14 0 58.24l26.89 26.15h-413.2c-23.46 0-42.41 18.51-42.41 41.23 0 22.84 19.06 41.27 42.41 41.27h515.68c0.6 0 1.32-0.11 2.07-0.11 0.3 0 0.6-0.11 0.94-0.11l1.02-0.08c0.42 0 0.87 0 1.24-0.11 0.3 0 0.53-0.12 0.83-0.12 0.44-0.01 0.89-0.08 1.32-0.19 0.38 0 0.57-0.11 0.76-0.11l1.32-0.3c0.37-0.07 0.56-0.07 0.75-0.19l1.24-0.3c0.23-0.12 0.53-0.12 0.76-0.23l1.13-0.37 0.79-0.34 1.06-0.38 0.94-0.3 0.9-0.41c0.34-0.08 0.75-0.19 1.02-0.42 0.22-0.19 0.57-0.26 0.75-0.37 0.42-0.12 0.76-0.3 1.13-0.53 0.19-0.16 0.41-0.29 0.64-0.38l1.13-0.6c0.23-0.19 0.41-0.3 0.64-0.38 0.38-0.22 0.72-0.53 1.13-0.75 0.19-0.08 0.42-0.3 0.64-0.38l1.13-0.83 0.61-0.45c0.3-0.22 0.64-0.45 0.94-0.75 0.3-0.19 0.53-0.49 0.79-0.68l0.75-0.6 1.55-1.43 1.47-1.51c0.23-0.19 0.42-0.49 0.6-0.71 0.23-0.3 0.53-0.49 0.71-0.79l0.76-0.91 0.49-0.6c0.34-0.38 0.64-0.71 0.86-1.13 0.08-0.19 0.3-0.38 0.38-0.56 0.22-0.42 0.53-0.75 0.75-1.13 0.17-0.17 0.31-0.38 0.41-0.6 0.19-0.42 0.42-0.71 0.64-1.09 0.19-0.22 0.26-0.42 0.38-0.64 0.11-0.38 0.3-0.68 0.53-1.05 0.19-0.22 0.3-0.53 0.41-0.75l0.42-0.98c0.11-0.3 0.3-0.6 0.38-0.9l0.37-0.94 0.38-1.02 0.34-0.75c0.19-0.35 0.31-0.73 0.37-1.13 0.11-0.19 0.11-0.49 0.23-0.71l0.3-1.2c0-0.23 0-0.41 0.11-0.61l0.3-1.32c0-0.3 0.11-0.49 0.11-0.68 0.11-0.42 0.11-0.94 0.19-1.32 0-0.3 0.12-0.53 0.12-0.83 0-0.37 0.11-0.79 0.11-1.2 0.11-0.3 0.11-0.68 0.11-0.98 0.07-0.41 0.07-0.71 0.07-1.01 0.11-0.6 0.11-1.28 0.11-2.03 0.01-0.66-0.11-1.26-0.11-1.97z"  horiz-adv-x="1024" />
      
      <glyph glyph-name="qizhi" unicode="&#59257;" d="M111.709091 817.710545h795.927273v-884.363636l-393.541819 132.654546-402.385454-132.654546z"  horiz-adv-x="1024" />
      
      <glyph glyph-name="power" unicode="&#59076;" d="M512 832C264.576 832 64 631.423 64 384s200.576-448 448-448 448 200.576 448 448S759.424 832 512 832zM512 0c-212.078 0-384 171.923-384 384 0 212.077 171.922 384 384 384 212.077 0 384-171.923 384-384C896 171.923 724.077 0 512 0zM544 639l-96 0-32 0c-17.673 0-33-13.327-33-31l0-32 0-192 0-64 0-160c0-17.673 14.327-32 32-32s32 14.327 32 32L447 319l97 0c88.366 0 160 71.634 160 160S632.366 639 544 639zM640 479c0-52.935-43.065-96-96-96l-97 0 0 1L447 575l1 0 0 1 96 0c53.02 0 96-42.98 96-96 0-0.167-0.006-0.333-0.006-0.501C639.994 479.333 640 479.167 640 479z"  horiz-adv-x="1024" />
      
      <glyph glyph-name="leijifadianliang1" unicode="&#59081;" d="M664.83636348 443.56363653h-62.34545479c-14.15454521 0-51.01363652-5.93181826-62.3454539 0-2.86363653 8.95909131 5.64545479 26.83636348 8.50909042 35.75454521 5.64545479 23.85 11.33181826 47.65909131 19.84090958 71.50909131l28.35 104.27727216c2.82272695 14.89090869-14.19545479 20.86363652-19.84090958 8.91818174l-226.75909042-318.76363564c-5.68636347-5.93181826 2.82272695-17.87727305 8.50909042-17.87727305H449.40909131c5.64545479 0 31.17272695 2.98636347 33.9954539-2.94545479 2.86363653-5.97272695-2.86363653-20.86363652-5.6454539-26.83636347-17.01818174-62.55-34.03636347-122.11363653-48.19090957-184.70454521-2.86363653-14.89090869 14.15454521-20.86363652 19.84090957-8.91818174l223.8954539 321.70909042c5.68636347 8.95909131 0 17.87727305-8.50909042 17.87727305zM512-66C262.98636347-66 62 134.98636347000001 62 384S262.98636347 834 512 834s450-200.98636347 450-450-200.98636347-450-450-450z m0 839.98636348A389.20909131 389.20909131 0 0 1 122.01363652 384 389.20909131 389.20909131 0 0 1 512-5.986363480000023 389.20909131 389.20909131 0 0 1 901.98636348 384 389.20909131 389.20909131 0 0 1 512 773.98636348z"  horiz-adv-x="1024" />
      
      <glyph glyph-name="fadianliang2" unicode="&#59294;" d="M919.344 316.405c-18.872 0-34.187-15.25-34.187-34.037 0-18.785 15.315-34.035 34.187-34.035 18.874 0 34.189 15.249 34.189 34.035-0.001 18.825-15.316 34.037-34.189 34.037z m-27.72 136.941c0-18.824 15.315-34.036 34.189-34.036 18.872 0 34.188 15.25 34.188 34.036s-15.315 34.036-34.188 34.036c-18.874 0.001-34.189-15.249-34.189-34.036z m-277.413-440.9c-19.336 0-35.039-15.44-35.039-34.454s15.703-34.454 35.039-34.454 35.039 15.44 35.039 34.454-15.664 34.454-35.039 34.454z m243.187 165.19c-18.872 0-34.188-15.44-34.188-34.454 0-19.015 15.315-34.454 34.188-34.454 18.874 0 34.189 15.44 34.189 34.454s-15.278 34.454-34.189 34.454z m-103.88-102.945c-18.873 0-34.188-15.63-34.188-34.873 0-19.281 15.315-34.872 34.188-34.872 18.874 0 34.189 15.63 34.189 34.872 0.039 19.243-15.276 34.873-34.189 34.873zM512 0c-51.868 0-102.15 10.144-149.451 30.15-45.719 19.337-86.791 47.034-122.077 82.321-35.288 35.286-62.984 76.359-82.321 122.078C138.144 281.85 128 332.133 128 384s10.144 102.15 30.15 149.451c19.338 45.719 47.034 86.791 82.321 122.077 35.286 35.287 76.359 62.984 122.077 82.321C409.85 757.856 460.132 768 512 768s102.15-10.144 149.451-30.15c45.719-19.337 86.791-47.034 122.078-82.321 35.287-35.286 62.984-76.359 82.321-122.077 0.44-1.039 0.868-2.083 1.298-3.124l59.175 24.38C859.194 717.452 698.976 832 511.999 832c-247.424 0-448-200.576-448-448s200.576-448 448-448l0.001 64zM673.874 443.766h-65.788c-14.271 0-53.813-7.101-67.667 1.323-2.645 9.537 6.126 27.081 8.424 35.435 6.822 24.227 13.575 48.523 20.398 72.749 9.886 35.296 19.771 70.591 29.657 105.956 3.898 13.784-14.271 19.701-21.86 9.259-79.015-108.741-158.099-217.412-237.253-326.153-5.5-7.588 1.949-18.031 10.373-18.031h96.21c6.753 0 32.093 3.968 36.34-2.019 3.829-5.291-3.62-20.746-5.291-26.663-17.474-62.307-34.947-124.544-52.352-186.85-3.899-13.784 14.271-19.701 21.86-9.259 79.084 108.671 158.168 217.412 237.253 326.083 5.568 7.658-1.881 18.17-10.304 18.17z"  horiz-adv-x="1024" />
      
      <glyph glyph-name="rifadianliang1" unicode="&#58911;" d="M701.263 424.041H574.226l42.56 278.057-295.99-363.612H468.47l-41.915-278.06 274.708 363.615zM959.002 385.178C959.002 632.133 758.134 833 511.178 833c-246.958 0-447.823-200.865-447.823-447.823 0-246.958 200.865-447.824 447.823-447.824 69.927 0 136.156 16.11 195.177 44.805C733.064-45.67 770.63-63 812.25-63c81.047 0 146.749 65.702 146.749 146.749 0 41.556-17.28 79.076-45.04 105.774 28.84 59.146 45.043 125.54 45.043 195.656zM665.5 83.75a146.593 146.593 0 0 1 7.509-46.443c-49.201-22.974-104.046-35.807-161.83-35.807-211.531 0-383.676 172.147-383.676 383.678 0 211.527 171.976 383.674 383.675 383.674s383.675-171.975 383.675-383.674c0-57.964-12.907-112.948-35.993-162.243v0.003a146.583 146.583 0 0 1-46.61 7.562c-81.047 0-146.75-65.703-146.75-146.75z m147.3-98.682c-51.84 0-93.865 42.024-93.865 93.867 0 51.84 42.025 93.865 93.865 93.865 51.843 0 93.868-42.025 93.868-93.865 0-51.843-42.025-93.867-93.868-93.867zM753.07 78.72a60.372 60.372 0 1 1 120.745 0 60.372 60.372 0 1 1-120.745 0z"  horiz-adv-x="1024" />
      
      <glyph glyph-name="dianwang" unicode="&#59433;" d="M518.4 435.2h102.4L390.4 192l64 224H352l108.8 236.8h198.4L518.4 435.2z m307.2 262.4c83.2-83.2 128-198.4 128-313.6s-44.8-230.4-128-313.6-198.4-128-313.6-128-230.4 44.8-313.6 128S64 268.8 64 384s44.8 230.4 128 313.6S390.4 832 512 832s230.4-44.8 313.6-134.4z m83.2-288c-6.4 83.2-38.4 166.4-89.6 230.4-25.6-19.2-57.6-38.4-89.6-57.6 12.8-51.2 19.2-108.8 25.6-172.8h153.6zM377.6 761.6c-57.6-19.2-102.4-51.2-140.8-89.6 19.2-19.2 44.8-32 70.4-44.8 6.4 25.6 12.8 44.8 25.6 70.4 12.8 25.6 25.6 44.8 44.8 64z m-172.8-128c-57.6-57.6-89.6-140.8-89.6-224h153.6c0 57.6 12.8 121.6 25.6 172.8-38.4 12.8-64 32-89.6 51.2zM115.2 358.4c6.4-83.2 38.4-160 83.2-217.6 25.6 25.6 57.6 44.8 89.6 57.6-12.8 51.2-19.2 102.4-19.2 160H115.2z m326.4-160l89.6 96v-44.8c51.2 0 102.4-12.8 153.6-32 12.8 44.8 19.2 96 19.2 140.8H601.6l44.8 51.2h64c0 51.2-6.4 108.8-19.2 153.6l-57.6-19.2 38.4 64 32 51.2v-6.4c6.4-6.4 6.4-19.2 12.8-25.6 25.6 12.8 51.2 25.6 70.4 44.8-38.4 38.4-89.6 70.4-140.8 89.6 12.8-19.2 32-38.4 44.8-64 0 0 0-6.4 6.4-6.4H640C608 736 569.6 768 531.2 780.8v-96h-44.8V780.8c-38.4-12.8-76.8-51.2-108.8-108.8-12.8-19.2-19.2-38.4-25.6-64 12.8-6.4 32-12.8 44.8-12.8l-19.2-44.8c-12.8 0-32 6.4-44.8 12.8-6.4-44.8-12.8-96-19.2-147.2l-12.8-38.4h108.8l-6.4-19.2H313.6c6.4-44.8 6.4-96 19.2-140.8 12.8 6.4 19.2 6.4 32 12.8l-12.8-57.6h-6.4v-6.4l-19.2-76.8c-12.8 19.2-19.2 38.4-25.6 64-25.6-12.8-51.2-32-70.4-44.8 38.4-44.8 89.6-76.8 147.2-96-12.8 19.2-32 38.4-44.8 64l32 38.4c0-6.4 6.4-12.8 6.4-12.8 38.4-64 76.8-102.4 115.2-108.8v211.2c-12.8-6.4-25.6-6.4-44.8-6.4z m96-204.8c38.4 12.8 76.8 44.8 108.8 108.8 12.8 19.2 19.2 44.8 32 70.4-44.8 19.2-89.6 25.6-140.8 25.6v-204.8z m108.8 19.2c57.6 19.2 108.8 51.2 147.2 96-19.2 19.2-44.8 32-70.4 44.8-6.4-25.6-19.2-51.2-32-76.8-19.2-25.6-32-44.8-44.8-64z m179.2 128c51.2 64 76.8 140.8 83.2 217.6h-153.6c0-57.6-6.4-108.8-19.2-160 32-12.8 57.6-38.4 89.6-57.6z"  horiz-adv-x="1024" />
      
      <glyph glyph-name="jurassic_line" unicode="&#59021;" d="M64 416h896v-64H64z"  horiz-adv-x="1024" />
      
      <glyph glyph-name="round" unicode="&#60276;" d="M881.387 598.187c38.08-65.387 57.28-136.747 57.28-214.187s-19.094-148.8-57.28-214.187c-38.187-65.28-89.92-117.12-155.2-155.2S589.44-42.667 512-42.667s-148.8 19.094-214.187 57.28c-65.28 38.08-117.013 89.814-155.306 155.307C104.427 235.2 85.333 306.56 85.333 384c0 77.333 19.094 148.693 57.28 214.187 38.08 65.28 89.814 117.013 155.307 155.306C363.2 791.467 434.56 810.667 512 810.667c77.333 0 148.693-19.094 214.187-57.28 65.28-38.187 117.013-89.92 155.2-155.2z m-217.707 47.36C617.387 672.533 566.827 686.08 512 686.08s-105.387-13.547-151.68-40.533-82.987-63.68-109.973-109.974c-26.987-46.293-40.534-96.853-40.534-151.68s13.547-105.386 40.534-151.68c26.986-46.293 63.68-82.986 109.973-109.973 46.293-26.987 96.853-40.533 151.68-40.533s105.387 13.546 151.68 40.533c46.293 26.987 82.987 63.68 109.973 109.973 26.987 46.294 40.534 96.854 40.534 151.68s-13.547 105.387-40.534 151.68c-27.093 46.294-63.786 82.987-109.973 109.974z"  horiz-adv-x="1024" />
      
      <glyph glyph-name="dash" unicode="&#60382;" d="M112 420h160v-72H112z m320 0h160v-72H432z m320 0h160v-72H752z"  horiz-adv-x="1024" />
      
      <glyph glyph-name="fengdian3" unicode="&#59212;" d="M510.69 253.549c45.223 0 81.821 36.667 81.821 81.821 0 45.248-36.598 81.821-81.821 81.821-45.198 0-81.865-36.578-81.865-81.821-0.004-45.154 36.667-81.821 81.865-81.821zM854.483 182.315c-59.867 44.392-137.809 96.383-210.811 140.016-3.233 1.92-6.987 2.056-10.293 0.492-3.262-1.474-5.562-4.512-6.164-8.173-4.736-28.942-20.142-53.867-42.165-71.505-2.81-2.28-4.468-5.94-4.064-9.47 0.204-3.617 2.367-6.967 5.604-8.8 140.444-77.489 306.455-160.294 353.938-161.498 5.266 0.174 12.257 0.845 17.303 7.948 1.653 3.17 2.168 5.985 2.168 8.304-4.151 26.713-45.222 55.698-105.516 102.686zM469.089 445.928c13.127 5.002 27.06 8.041 41.533 8.041 14.517 0 28.426-3.039 41.606-8.041 1.25-0.487 2.586-0.709 3.904-0.709 2.236 0 4.448 0.622 6.3 2.008 2.994 2.1 4.692 5.537 4.692 9.199-1.342 88.433-6.885 179.784-15.013 249.276-3.991 34.882-8.751 64.135-14.196 85.307-7.059 20.321-6.772 35.864-27.294 40.351-20.345-4.487-20.185-20.029-27.287-40.351-15.855-63.246-27.041-201.622-29.122-334.584 0-3.662 1.678-7.104 4.736-9.199 2.951-2.145 6.7-2.548 10.141-1.298zM437.043 236.492c0.404 3.617-1.138 7.234-3.884 9.509-21.347 18.183-36 43.639-39.972 72.76a10.796 10.796 0 0 1-6.121 8.396c-3.33 1.654-7.327 1.517-10.316-0.447-73.649-43.857-150.648-94.15-209.47-136.759-59.136-45.024-98.998-72.176-103.261-98.886-0.137-2.095 0.447-5.489 2.342-8.304l0.025 0.044c5.226-7.725 12.548-8.041 18.066-8.128 47.809 1.07 207.441 76.371 346.966 153.239 3.122 1.833 5.222 5.047 5.625 8.576z"  horiz-adv-x="1024" />
      
      <glyph glyph-name="xuanzhuanjiaodu" unicode="&#60886;" d="M526.048 29.12c2.432 49.92-8.224 91.552-31.552 125.952-24.896 36.704-63.264 63.68-116.224 80.96L203.2 29.12H526.08z m64.064 0h338.56v-64H65.344L771.52 800l48.864-41.344-398.08-470.56c54.048-21.792 96-54.144 125.12-97.056 31.008-45.664 45.12-99.936 42.656-161.856z"  horiz-adv-x="1024" />
      
      <glyph glyph-name="empty2" unicode="&#59150;" d="M606.72 345.6h-221.866667c-9.386667 0-17.066667-7.68-17.066666-17.066667s7.68-17.066667 17.066666-17.066666h221.866667c9.386667 0 17.066667 7.68 17.066667 17.066666s-7.68 17.066667-17.066667 17.066667zM64.853333 371.20000000000005c-28.16 0-51.2-23.04-51.2-51.2s23.04-51.2 51.2-51.2 51.2 23.04 51.2 51.2-23.04 51.2-51.2 51.2z m0-76.8c-14.506667 0-25.6 11.093333-25.6 25.6s11.093333 25.6 25.6 25.6 25.6-11.093333 25.6-25.6-11.946667-25.6-25.6-25.6zM162.986667 610.133333h-21.333334V631.4666669999999c0 6.826667-5.973333 12.8-12.8 12.8s-12.8-5.973333-12.8-12.8v-21.333334h-21.333333c-6.826667 0-12.8-5.973333-12.8-12.8s5.973333-12.8 12.8-12.8h21.333333V563.2c0-6.826667 5.973333-12.8 12.8-12.8s12.8 5.973333 12.8 12.8v21.333333h21.333334c6.826667 0 12.8 5.973333 12.8 12.8s-5.973333 12.8-12.8 12.8zM546.986667 243.20000000000005h-162.133334c-9.386667 0-17.066667-7.68-17.066666-17.066667s7.68-17.066667 17.066666-17.066666h162.133334c9.386667 0 17.066667 7.68 17.066666 17.066666s-7.68 17.066667-17.066666 17.066667zM991.573333 204.79999999999995l15.36 15.36c5.12 5.12 5.12 12.8 0 17.92s-12.8 5.12-17.92 0l-15.36-15.36-15.36 15.36c-5.12 5.12-12.8 5.12-17.92 0s-5.12-12.8 0-17.92L955.733333 204.79999999999995l-15.36-15.36c-5.12-5.12-5.12-12.8 0-17.92s12.8-5.12 17.92 0l15.36 15.36 15.36-15.36c5.12-5.12 12.8-5.12 17.92 0s5.12 12.8 0 17.92l-15.36 15.36zM815.786667 721.066667c-28.16 0-51.2-23.04-51.2-51.2s23.04-51.2 51.2-51.2 51.2 23.04 51.2 51.2-23.04 51.2-51.2 51.2z m0-76.8c-14.506667 0-25.6 11.093333-25.6 25.6s11.093333 25.6 25.6 25.6 25.6-11.093333 25.6-25.6-11.946667-25.6-25.6-25.6zM764.586667 277.33333300000004h-51.2v264.533334c0 28.16-23.04 51.2-51.2 51.2h-341.333334c-28.16 0-51.2-23.04-51.2-51.2v-443.733334c0-28.16 23.04-51.2 51.2-51.2h426.666667c37.546667 0 68.266667 30.72 68.266667 68.266667v110.933333c0 28.16-23.04 51.2-51.2 51.2z m-443.733334-196.266666c-9.386667 0-17.066667 7.68-17.066666 17.066666v443.733334c0 9.386667 7.68 17.066667 17.066666 17.066666h341.333334c9.386667 0 17.066667-7.68 17.066666-17.066666v-426.666667c0-12.8 3.413333-23.893333 9.386667-34.133333H320.853333z m460.8 34.133333c0-18.773333-15.36-34.133333-34.133333-34.133333s-34.133333 15.36-34.133333 34.133333v128h51.2c9.386667 0 17.066667-7.68 17.066666-17.066667v-110.933333zM606.72 448h-221.866667c-9.386667 0-17.066667-7.68-17.066666-17.066667s7.68-17.066667 17.066666-17.066666h221.866667c9.386667 0 17.066667 7.68 17.066667 17.066666s-7.68 17.066667-17.066667 17.066667z"  horiz-adv-x="1024" />
      
      <glyph glyph-name="empty" unicode="&#58949;" d="M152.824242-60.55563600000005c8.579879 0 14.273939-5.709576 14.27394-14.27394 0-8.579879-5.694061-14.273939-14.27394-14.273939H14.273939c-8.548848 0-14.273939 5.694061-14.273939 14.273939 0 8.548848 5.725091 14.273939 14.273939 14.27394h138.550303z m1064.075637 108.559515c8.579879 0 14.273939-5.709576 14.273939-14.289455 0-8.564364-5.694061-14.273939-14.273939-14.273939H975.515152v-37.127758c0-40.013576-31.418182-71.416242-71.400728-71.416242h-42.852848c0-8.579879-4.282182-17.159758-10.007273-24.296727-14.273939-14.273939-35.700364-14.273939-49.958788 0l-22.884848 24.296727H224.240485c-8.579879 0-14.273939 5.694061-14.27394 14.273939 0 8.548848 5.694061 14.273939 14.27394 14.27394h62.851879a73.433212 73.433212 0 0 0-14.289455 42.868363V696.428606c0 39.998061 31.418182 71.416242 71.416243 71.416242h45.707636V804.988121c0 39.998061 31.433697 71.416242 71.416242 71.416243h561.322667c39.982545 0 71.400727-31.433697 71.400727-71.416243v-714.162424a73.355636 73.355636 0 0 0-14.273939-42.821818h137.107394z m-225.683394 0h30.006303c24.281212 0 42.837333 18.556121 42.837333 42.852848V804.988121c0 24.281212-18.556121 42.852848-42.837333 42.852849H459.900121c-24.265697 0-42.837333-18.571636-42.837333-42.852849V767.844848h488.448c40.029091 0 71.447273-31.418182 71.447273-71.416242v-648.440242h14.273939v0.015515z m-335.623758 35.700363a124.121212 124.121212 0 0 1 0 175.693576 123.283394 123.283394 0 0 1-87.117575 35.700364c-32.861091 0-64.263758-12.877576-87.133091-35.715879a124.121212 124.121212 0 0 1 0-175.678061 123.221333 123.221333 0 0 1 87.133091-35.684848c31.433697 0 62.851879 12.846545 87.117575 35.684848z m292.80194-101.376V696.428606c0 24.296727-18.556121 42.852848-42.837334 42.852849H342.791758c-24.281212 0-42.852848-18.556121-42.852849-42.852849V-17.687273000000005c0-24.281212 18.571636-42.852848 42.852849-42.852848H749.847273l-39.982546 39.99806a35.979636 35.979636 0 0 0-8.579879 37.127758L665.6 53.71345499999995a150.807273 150.807273 0 0 0-97.124848-35.715879c-41.425455 0-78.568727 15.732364-108.559516 44.295757a151.738182 151.738182 0 0 0 0 215.660606c28.578909 28.578909 67.134061 44.295758 108.559516 44.295758 41.409939 0 78.568727-15.716848 108.544-44.295758 55.699394-55.699394 58.554182-145.687273 9.991757-205.668848l37.143273-37.143273c12.862061 4.282182 27.151515 2.854788 37.127757-8.564363l88.560485-88.54497h55.699394c22.853818 1.411879 42.852848 19.983515 42.852849 44.280242h0.015515zM431.352242 592.197818c-8.564364 0-14.273939 5.694061-14.273939 14.27394 0 8.564364 5.709576 14.273939 14.273939 14.273939h249.949091c8.564364 0 14.289455-5.709576 14.289455-14.273939 0-8.579879-5.725091-14.273939-14.289455-14.27394H431.321212h0.03103z m332.8-62.867394c8.579879 0 14.273939-5.694061 14.27394-14.273939 0-8.564364-5.694061-14.273939-14.27394-14.27394H435.634424c-8.579879 0-14.273939 5.709576-14.273939 14.27394 0 8.579879 5.694061 14.273939 14.273939 14.273939h328.517818z m-160.007757-91.384242c8.579879 0 14.30497-5.709576 14.30497-14.27394s-5.725091-14.273939-14.27394-14.273939H428.450909c-8.548848 0-14.242909 5.709576-14.242909 14.273939s5.694061 14.273939 14.273939 14.27394h175.662546z m-529.997576 83.316363l-16.104727-30.72 16.120242-30.72-30.72 16.120243-30.72-16.135758 16.120243 30.72-16.120243 30.72 30.72-16.104727 30.72 16.120242zM272.663273 893.517576L251.159273 852.557576l21.488485-40.96-40.96 21.488485-40.96-21.488485 21.488484 40.96L190.727758 893.517576l40.96-21.488485L272.647758 893.517576zM87.164121 723.580121c0-15.732364-12.877576-28.547879-28.594424-28.547879a28.64097 28.64097 0 0 0-28.547879 28.547879c0 15.701333 12.877576 28.578909 28.547879 28.578909 15.732364 0 28.594424-12.877576 28.594424-28.594424z m28.547879 0a57.297455 57.297455 0 0 1-57.126788 57.126788 57.31297 57.31297 0 0 1-57.142303-57.126788 57.297455 57.297455 0 0 1 57.142303-57.126788 57.297455 57.297455 0 0 1 57.111273 57.126788z m1124.072727-67.13406c0 8.564364 5.709576 14.273939 14.27394 14.273939s14.273939-5.709576 14.273939-14.273939-5.709576-14.289455-14.273939-14.289455-14.273939 5.725091-14.27394 14.289455z m-28.578909 0c0-24.281212 18.571636-42.821818 42.852849-42.821819 24.265697 0 42.837333 18.540606 42.837333 42.821819 0 24.281212-18.540606 42.852848-42.837333 42.852848-24.281212 0-42.852848-18.556121-42.852849-42.852848z"  horiz-adv-x="1303" />
      
      <glyph glyph-name="xiazaidaoru" unicode="&#59590;" d="M328 320h152V768h64v-448h152L512 128 328 320z m568 64h-64v-320H192V384h-64v-384h768V384z"  horiz-adv-x="1024" />
      
      <glyph glyph-name="nongyun" unicode="&#58881;" d="M327.90217659 356.95947486q-0.74083629 6.66752666-1.11125481 13.33505331t-0.37041851 13.33505332q0 38.52348809 14.44630813 72.60195841t39.63474289 59.26690508 58.89648658 39.6347429 72.23154062 14.44630812q29.63345255 0 56.30355991-8.89003554t49.26561472-24.44759848 39.63474291-37.04181551 27.41094364-46.67268733q-19.26174441-2.22250888-37.412234-5.92669036t-35.18972512-8.14919925q-14.81672591 26.67010736-40.74599697 42.96850586t-59.26690509 16.29839923q-23.70676219 0-44.07976067-8.89003556t-35.93056141-24.44759847-24.44759848-36.3009792-8.89003556-44.45017845l0-5.92669036q0-2.96334518 0.74083631-6.66752667-11.11254443-1.48167259-25.18843478-4.81543628t-34.8193066-7.03794517zM253.07770858 576.2470226600001q-14.07588962 13.33505332-14.07588962 32.59679774t14.07588962 32.59679771q13.33505332 14.07588962 32.59679772 14.07588962t32.59679773-14.07588962l32.59679772-32.59679771q14.07588962-13.33505332 14.07588961-32.59679774t-14.07588961-33.33763402q-13.33505332-13.33505332-32.59679772-13.33505332t-32.59679773 13.33505332zM511.62958149 615.5113477699999q-19.26174441 0-32.59679772 13.70547183t-13.33505333 32.96721624l0 46.67268733q0 19.26174441 13.33505333 32.59679773t32.59679772 13.33505332 32.96721624-13.33505332 13.70547183-32.59679773l0-46.67268733q0-19.26174441-13.70547183-32.96721624t-32.96721624-13.70547183zM736.8438204 541.4277160500001q-13.33505332-13.33505332-32.59679774-13.33505332t-33.33763401 13.33505332q-13.33505332 14.07588962-13.33505333 33.33763402t13.33505333 32.59679773l33.33763401 32.59679773q13.33505332 14.07588962 32.59679773 14.07588961t32.59679772-14.07588961q14.07588962-13.33505332 14.07588962-32.59679773t-14.07588962-32.59679773zM755.3647285 430.30226955q52.59937843 0 88.90035763-12.96463553t60.74857767-34.07847031 38.5234881-48.52477845 21.11383478-55.5627236 8.89003556-54.82188731 1.85209109-47.41352364q0-31.11512513-13.70547183-60.74857768t-39.63474289-52.59937843-62.97108658-36.67139771-83.71450356-13.70547183l-371.89982901 0q-46.67268734 0-79.26948507 12.22379924t-52.59937843 32.59679772-28.89261625 47.04310585-8.89003555 56.30355991 11.48296295 55.9331414 31.11512514 46.30226955 45.93185104 31.48554292 56.67397769 11.48296294q42.96850586 0 77.41739468-22.2250896t52.22895992-58.52606879q0 36.3009792 13.33505333 72.97237692t42.59808807 65.93443175 76.30613989 47.41352364 114.45921018 18.1504896zM279.74781594 383.62958148999996q0-19.26174441-13.33505333-32.59679772t-32.59679772-13.33505333l-46.67268734 0q-19.26174441 0-32.59679772 13.33505333t-13.33505332 32.59679772 13.33505332 32.96721624 32.59679772 13.70547183l46.67268734 0q19.26174441 0 32.59679772-13.70547183t13.33505333-32.96721624z"  horiz-adv-x="1152" />
      
      <glyph glyph-name="dianji" unicode="&#59019;" d="M779.19876935 175.67892673999995h469.43274042v-60.20268997h-469.43274043zM779.19876935 294.43717455h469.43274042v-60.20268995h-469.43274043zM779.19876935 413.19542238h469.43274042v-60.20269049h-469.43274043zM779.19876935 531.95366967h469.43274042v-60.20268995h-469.43274043zM779.19876935 650.79427403h469.43274042v-60.20268995h-469.43274043zM1277.45632739 652.52376322v-534.65918431a268.48258468 268.48258468 0 0 1 255.30552574 267.1648788A268.48258468 268.48258468 0 0 1 1277.45632739 652.52376322zM742.13829013 652.52376322A267.57666207 267.57666207 0 0 1 486.83276439 385.02945771a267.57666207 267.57666207 0 0 1 255.30552574-267.3295919z"  horiz-adv-x="1994" />
      
      <glyph glyph-name="fadianji" unicode="&#58971;" d="M272.05810628 92.19597431c-35.64835945 0.32032657-66.21976805 21.89188391-79.66469281 52.65636545H176.31566965a35.10424387 35.10424387 0 0 0-35.10424387 35.10424387V500.28280706a35.10424387 35.10424387 0 0 0 35.10424387 35.10424387h20.51843017C212.00790961 561.61869718 240.36775048 579.26735558 272.85233976 579.26735558V710.90826956c0 24.23509245 19.64521221 43.88030466 43.88030466 43.88030466h215.01349253c24.23509245 0 43.88030466-19.64521221 43.88030467-43.88030466v-131.64091398h215.01349252c32.48458928 0 60.84443016-17.64865841 76.01823995-43.88030465H926.66887888c48.47018417 0 87.76060931-39.29042442 87.76060932-87.76060931v-267.669858c0-48.47018417-39.29042442-87.76060931-87.76060933-87.76060931h-78.98454852l39.49227462-78.98454853H228.97203509l43.08607119 78.98454853zM272.85233976 535.38705093v-43.88030466h526.5636559V535.38705093H272.85233976z m0-87.76060931v-43.88030467h526.5636559V447.62644162H272.85233976z m0-87.76060934v-43.88030465h526.5636559V359.86583227999995H272.85233976z m0-87.76060931v-43.88030465h526.5636559v43.88030465H272.85233976z m0-87.76060931v-43.88030467h526.5636559v43.88030467H272.85233976z m92.14863935 430.0269858c26.65728473 0 48.26833541 21.61104996 48.26833541 48.26833468s-21.61104996 48.26833541-48.26833541 48.26833542-48.26833541-21.61104996-48.26833469-48.26833542 21.61104996-48.26833541 48.26833469-48.26833468z m122.86485317 0c26.65728473 0 48.26833541 21.61104996 48.26833544 48.26833468s-21.61104996 48.26833541-48.26833544 48.26833542-48.26833541-21.61104996-48.26833468-48.26833542 21.61104996-48.26833541 48.26833468-48.26833468z"  horiz-adv-x="1205" />
      
      <glyph glyph-name="fenglunji" unicode="&#59054;" d="M604.20982107 444.87053595V491.87946405C604.20982107 664.6071429799999 562.44419608 805.875 515.375 805.875c-47.12946405-10.48660702-88.95535703-151.75446405-88.95535703-324.421875v-47.00892892c26.15625 20.85267892 57.55580392 36.58258906 88.95535703 36.58258987 31.33928595 0 62.79910702-5.24330393 88.95535703-26.15625z m130.84151798-204.06696487a158.98660703 158.98660703 0 0 1-36.64285703 26.15624999c-5.24330393-31.33928595-15.66964297-57.55580392-31.33928595-83.71205309-20.97321406-26.15625-47.12946405-41.88616095-78.52901714-47.0691969 10.48660702-10.48660702 20.91294608-20.97321406 36.64285702-31.3995531 136.02455392-109.86830393 272.04910702-167.42410703 298.20535703-130.78125001 26.15625 36.58258906-57.55580392 156.9375-188.33705393 266.8058031z m-381.97767811-57.55580311a142.05133905 142.05133905 0 0 0-31.33928594 88.95535703c-10.48660702-10.48660702-26.21651797-15.66964297-36.64285703-26.15625C149.06696405 136.17857107999998 65.35491095 15.76339297000004 96.69419608-20.819196069999975c31.39955392-36.64285703 162.24107108 20.91294608 298.265625 130.78124999 10.48660702 10.48660702 20.91294608 20.97321406 36.64285785 31.39955311-31.39955392 0-57.55580392 15.66964297-78.52901798 41.88616095z m162.24107108 188.3370531c-41.88616095 0-73.28571406-31.33928595-73.28571405-73.22544607 0-41.88616095 31.39955392-73.22544607 73.28571405-73.22544607 41.82589298 0 73.22544607 31.33928595 73.2254469 73.22544607 0 36.64285703-31.33928595 73.22544607-73.2254469 73.22544608z"  horiz-adv-x="1024" />
      
      <glyph glyph-name="lizhu" unicode="&#59419;" d="M420.352 875.52c-119.296 0-216.064-44.544-216.064-99.84S301.056 675.84 420.352 675.84c119.296 0 247.296 44.544 247.296 99.84S539.648 875.52 420.352 875.52z m0-278.016c-100.864 0-185.856 32.256-209.408 76.288-1.536-7.68-2.56-15.36-2.56-23.552v-635.392c0-61.952 50.176-112.128 112.128-112.128H542.72c61.952 0 112.128 50.176 112.128 112.128V650.24c0 5.632-0.512 11.264-1.024 16.896-35.84-40.448-137.216-69.632-233.472-69.632z m356.864 133.12h-25.088c-14.848 0-27.136-12.288-27.136-27.136v-687.104c0-14.848 12.288-27.136 27.136-27.136h25.088c14.848 0 27.136 12.288 27.136 27.136V703.488c0 14.848-11.776 27.136-27.136 27.136z"  horiz-adv-x="1024" />
      
      <glyph glyph-name="chuandonglingjian" unicode="&#58917;" d="M698.0096 290.304a34.3552 34.3552 0 0 0-34.0992 24.4224 252.0576 252.0576 0 0 0-249.3952-216.6272 252.16 252.16 0 0 0-251.8016 252.1088A251.904 251.904 0 0 0 501.248 586.752a29.7472 29.7472 0 0 0 3.8912 5.12c8.0896 8.0384 14.8992 9.4208 20.1216 11.1104l16.384 4.5056 1.8944 4.5056-8.6016 15.104c-1.536 3.072-3.3792 6.4-4.8128 11.2128a249.0368 249.0368 0 0 1-21.504 7.7824l-14.336 51.5072c-3.7376 12.8-7.168 15.8208-15.9232 15.8208H350.72c-8.8064 0-12.2368-2.6112-15.872-15.9232l-14.336-51.5072c-16.896-5.2736-33.2288-12.1856-48.6912-20.1728l-46.592 26.2656c-12.032 6.912-16.384 6.1952-22.6304 0L112.384 561.92c-6.144-6.1952-6.4-10.8032 0-22.6304l26.3168-46.592a313.2928 313.2928 0 0 1-20.1216-48.4864l-51.456-14.336c-13.312-3.6864-15.9232-7.0656-15.9232-15.872v-127.5904c0-8.8064 3.072-12.2368 15.872-15.872l51.5072-14.336c5.3248-16.896 12.2368-33.2288 20.224-48.6912l-26.3168-46.592c-6.912-12.032-6.144-16.3328 0-22.6304L202.752 48.128c6.1952-6.144 10.752-6.4 22.5792 0l46.592 26.3168c15.5136-7.9872 31.6416-14.6944 48.5376-20.0704l14.336-51.5072c3.6352-13.312 7.0656-15.872 15.872-15.872h127.6928c8.8064 0 12.1856 3.072 15.872 15.872l14.4384 51.5072c16.896 5.2736 32.9728 12.0832 48.4864 20.0704l46.592-26.3168c11.776-6.4 16.384-6.144 22.5792 0l90.2144 90.2144c6.1952 6.1952 6.912 10.5984 0 22.6304l-26.3168 46.4896c8.1408 15.5648 14.8992 31.6928 20.224 48.6912l51.5072 14.336c12.8 3.6864 15.872 7.0656 15.872 15.872v4.4032c-1.9968-0.2048-3.7888-0.4096-5.2736-0.4096h-74.496zM414.6176 560.6912c30.208 0 59.5456-6.4512 86.6304-18.8416l7.4752-3.4304V468.992l-19.2 11.008a149.76 149.76 0 0 1-224.9216-129.792 149.9648 149.9648 0 0 1 300.032-0.9216l0.1536 30.5664 38.0416-38.0416a26.112 26.112 0 0 1 10.496-5.2224l11.4176-2.56-1.536-11.6224a210.4832 210.4832 0 1 0-208.5888 238.2848zM938.1888 576.512l-30.1056 8.2944a172.2368 172.2368 0 0 1-11.776 28.3136l15.3088 27.136c3.7888 6.9632 3.6864 9.5232 0 13.2608l-52.736 52.6848c-3.6864 3.6864-6.144 3.9936-13.1584 0l-27.136-15.3088a164.9664 164.9664 0 0 1-28.3648 11.776l-8.3456 30.1056c-2.048 7.5264-4.1984 9.3184-9.2672 9.3184h-74.496c-5.12 0-7.1168-1.536-9.3184-9.3184l-8.2944-30.0544c-9.8816-3.072-19.4048-7.168-28.416-11.776l-27.136 15.2576c-7.0656 3.9936-9.5232 3.6864-13.2608 0l-52.6848-52.736c-3.6864-3.6864-3.7888-6.2464 0-13.1584l15.3088-27.1872c-4.608-9.0112-8.704-18.432-11.776-28.3136l-30.1568-8.2944c-7.5776-2.0992-9.216-4.096-9.216-9.3184v-74.496c0-5.12 1.8432-7.1168 9.3184-9.3184l30.1056-8.2944c3.072-9.8816 7.1168-19.4048 11.776-28.3648l-15.2576-27.2384c-3.9936-6.9632-3.6864-9.472 0-13.1584l52.736-52.736c3.6352-3.6864 6.2464-3.7888 13.1584 0l27.1872 15.36c9.0112-4.608 18.432-8.704 28.3136-11.8272l8.2944-30.1056c2.0992-7.8336 4.1984-9.3184 9.3184-9.3184h74.496c5.12 0 7.1168 1.792 9.2672 9.3184l8.3456 30.1056c9.8816 3.072 19.3024 7.0656 28.2624 11.776l27.2384-15.3088c6.8608-3.7888 9.472-3.6864 13.1584 0l52.736 52.736c3.6864 3.6864 3.9936 6.144 0 13.1584l-15.36 27.2384c4.864 8.96 8.704 18.432 11.8272 28.3648l30.1056 8.2944c7.5264 2.0992 9.3184 4.1984 9.3184 9.3184V567.1936c0 5.12-1.536 7.1168-9.3184 9.3184zM735.232 403.2a126.7712 126.7712 0 1 0 0 253.5424 126.7712 126.7712 0 0 0 0-253.5424zM349.9008 350.208a64.6656 64.6656 0 1 1 129.3312-0.0512 64.6656 64.6656 0 0 1-129.3312 0zM735.2832 622.08c-50.688 0-92.1088-41.3696-92.1088-92.0576 0.1024-50.688 41.472-92.16 92.16-92.16 50.7904 0 92.0576 41.472 92.0576 92.16s-41.3696 92.0576-92.1088 92.0576z"  horiz-adv-x="1024" />
      
      <glyph glyph-name="bianliuqi" unicode="&#59073;" d="M814.23324299 632.8744497299999h-48.23148251V699.45996666c0 16.07716084-13.76552582 32.15432167-32.15432166 32.15432167h-110.19372941c-16.09454155 0-32.15432167-13.78290653-32.15432167-32.15432167V632.8918304399999h-172.24287987V699.45996666c0 16.07716084-13.76552582 32.15432167-32.13694095 32.15432167H281.4969654C265.41980457 731.61428833 251.63689804 717.8313818 251.63689804 699.45996666V632.8918304399999H203.42279624C180.46287251 632.8744497299999 164.38571167 616.79728889 164.38571167 596.13161946v-443.1734562c0-20.68305015 16.07716084-36.74283027 39.03708457-36.74283028h4.58850862v-43.62559319c0-18.37141514 13.78290653-32.15432167 32.15432167-32.15432166h195.18542289c18.37141514 0 32.15432167 13.78290653 32.15432167 32.15432166v43.62559319h87.25118638v-43.62559319c0-18.37141514 13.76552582-32.15432167 32.15432166-32.15432166h195.1854229c18.35403443 0 32.13694096 13.78290653 32.13694096 32.15432166v43.62559319h4.5885086c20.68305015 0 39.03708458 16.07716084 39.03708459 36.74283028V596.13161946c-4.58850861 20.68305015-20.66566943 36.74283027-43.62559319 36.74283027z m-89.56282139-172.22549915v-172.20811845c0-22.97730446-18.37141514-43.62559319-43.62559319-43.62559317-22.95992375 0-43.62559319 18.35403443-43.62559318 43.62559317V460.64895058c0 22.95992375 18.37141514 43.62559319 43.62559318 43.62559318 22.95992375 0 43.62559319-18.35403443 43.62559319-43.62559318z m-344.43361759 0v-172.20811845c0-22.97730446-18.37141514-43.62559319-43.62559319-43.62559317-22.95992375 0-43.62559319 18.35403443-43.62559319 43.62559317V460.64895058c0 22.95992375 18.35403443 43.62559319 43.62559319 43.62559318 22.94254303 0 43.62559319-18.35403443 43.62559319-43.62559318z m128.58252526-213.55683803c-22.94254303 0-43.62559319 18.37141514-43.6255932 43.62559318v172.24287986c0 22.94254303 18.37141514 43.62559319 43.6255932 43.62559319 22.97730446 0 43.62559319-18.37141514 43.62559318-43.62559319v-172.24287986c0-25.25417805-20.64828873-43.62559319-43.62559318-43.62559318z"  horiz-adv-x="1024" />
      
      <glyph glyph-name="fengdian2" unicode="&#58880;" d="M512-128C229.23-128 0 101.23 0 384S229.23 896 512 896s512-229.23 512-512-229.23-512-512-512z m0 64c247.424 0 448 200.576 448 448S759.424 832 512 832 64 631.424 64 384s200.576-448 448-448z m-0.192 383.49c-34.424 0-62.354 27.925-62.35 62.316 0 34.458 27.926 62.316 62.35 62.316 34.442 0 62.317-27.855 62.317-62.316 0-34.391-27.874-62.317-62.317-62.317z m261.84-54.255c-45.595 33.81-104.959 73.408-160.559 106.64-2.463 1.462-5.321 1.565-7.839 0.374-2.484-1.122-4.236-3.436-4.695-6.225-3.606-22.042-15.34-41.026-32.114-54.46-2.14-1.735-3.403-4.524-3.095-7.212 0.156-2.754 1.804-5.306 4.269-6.703 106.964-59.017 233.403-122.083 269.567-123.001 4.01 0.133 9.335 0.643 13.178 6.054 1.26 2.413 1.651 4.559 1.651 6.324-3.16 20.347-34.442 42.422-80.363 78.21zM480.123 466.008c9.998 3.81 20.61 6.125 31.632 6.125 11.056 0 21.65-2.315 31.688-6.125 0.95-0.362 1.958-0.546 2.974-0.54 1.703 0 3.388 0.474 4.799 1.529 2.281 1.598 3.574 4.217 3.574 7.005-1.022 67.352-5.244 136.927-11.435 189.855-3.04 26.567-6.665 48.847-10.811 64.973-5.376 15.477-5.158 27.314-20.787 30.731-15.495-3.417-15.373-15.255-20.783-30.731-12.076-48.17-20.596-153.56-22.18-254.827 0-2.788 1.278-5.41 3.607-7.005 2.246-1.635 5.102-1.94 7.722-0.99z m-24.406-159.51c0.308 2.753-0.867 5.509-2.96 7.241-16.258 13.85-27.418 33.237-30.443 55.415a8.223 8.223 0 0 1-4.661 6.395c-2.536 1.259-5.581 1.155-7.858-0.341-56.092-33.402-114.737-71.707-159.537-104.159-45.04-34.291-75.399-54.97-78.645-75.314-0.104-1.596 0.34-4.18 1.784-6.325l0.019 0.033c3.98-5.883 9.557-6.124 13.76-6.19 36.413 0.814 157.992 58.165 264.257 116.71 2.377 1.4 3.976 3.846 4.284 6.534z"  horiz-adv-x="1024" />
      
      <glyph glyph-name="pingtaishuliang" unicode="&#58886;" d="M33.2 601.7L471 393.5c20.8-9.8 48-14.7 75.2-14.7s54.5 4.9 75.1 14.7l437.8 208.2c41.4 19.7 41.4 51.8 0 71.4L621.3 881.3C600.7 891.1 573.4 896 546.2 896c-27.3 0-54.5-4.9-75.2-14.7L33 673.1c-41.2-19.7-41.2-51.9 0.2-71.4z m-10-254.3l429-203.9c26.8-12.8 60.3-19.1 93.9-19.1 32.4-0.4 64.5 6.1 93.9 19.1l429.1 203.9c19.5 9.3 27.8 32.6 18.5 52.1-0.2 0.4-0.4 0.8-0.6 1.1-10.9 19.7-35.1 27.6-55.5 18.3l-428.9-204c-29.6-14.1-83.2-14.1-112.8 0l-429 204C40.3 428.8 15.5 421 4.4 401c-9.9-19.2-2.4-42.8 16.9-52.7 0.6-0.3 1.2-0.6 1.9-0.9zM1088 153.3c-11.1 19.9-35.8 27.8-56.4 17.9l-429-203.9c-29.6-14.1-83.2-14.1-112.8 0L60.9 171.2c-20.6 9.9-45.3 2-56.4-17.9-5-9.4-5.8-20.5-2.4-30.5 3.7-10.2 11.3-18.5 21.1-23l429-204c26.8-12.7 60.3-19.1 93.9-19.1 33.6 0 67.1 6.3 93.9 19.1l429 203.8c19.7 8.8 28.6 32 19.8 51.7-0.2 0.7-0.5 1.4-0.8 2z"  horiz-adv-x="1092" />
      
      <glyph glyph-name="fengdianchang" unicode="&#59053;" d="M281.531733 459.5712a10.581333 10.581333 0 0 1-5.12 7.168c-3.072 1.570133-6.144 1.570133-8.738133-0.477867a2657.826133 2657.826133 0 0 1-178.653867-116.258133c-50.722133-38.365867-84.514133-61.44-88.064-83.968 0-1.570133 0.477867-4.642133 2.048-7.168 4.573867-6.690133 10.717867-6.690133 15.36-7.168 40.96 1.024 177.152 65.058133 295.936 130.594133 2.594133 1.501867 4.642133 4.096 4.642134 7.168 0.477867 3.072-1.024 6.144-3.072 8.192a96.733867 96.733867 0 0 0-34.338134 61.917867z m99.874134-55.296a69.700267 69.700267 0 0 1 0 139.264 69.700267 69.700267 0 0 1 0-139.264z m-44.032 164.386133c2.525867-2.048 5.597867-2.048 8.669866-1.024 11.264 4.096 23.074133 6.621867 35.362134 6.621867s24.029867-2.525867 35.293866-6.621867c1.024-0.546133 2.048-0.546133 3.618134-0.546133 2.048 0 3.549867 0.546133 5.12 1.570133a9.0112 9.0112 0 0 1 4.096 7.645867 2105.685333 2105.685333 0 0 1-12.834134 211.968 602.112 602.112 0 0 1-12.288 72.704c-6.144 17.408-5.597867 30.72-23.005866 34.338133-17.408-3.618133-17.408-16.930133-23.074134-34.338133-13.312-53.725867-23.005867-171.485867-25.053866-284.672 0-2.525867 1.501867-5.597867 4.096-7.645867z m337.373866-225.28c-51.2 37.888-117.76 81.92-179.677866 119.261867a10.376533 10.376533 0 0 1-8.738134 0.546133c-2.525867-1.024-4.573867-3.618133-5.12-7.168-4.096-24.576-17.408-46.08-35.84-60.962133a10.24 10.24 0 0 1-3.549866-8.192c0-3.072 2.048-6.144 4.573866-7.645867 119.808-66.082133 261.12-136.260267 302.08-137.216 4.642133 0 10.24 0.477867 14.882134 6.621867a13.994667 13.994667 0 0 1 2.048 7.168c-4.096 23.005867-39.458133 47.581867-90.658134 87.586133z m-283.648 14.336h-16.384a33.5872 33.5872 0 0 1-32.768-33.792l-16.384-413.218133c0-18.432 14.882133-33.792 32.768-33.792h49.152c17.954133 0 32.768 15.36 32.768 33.792L423.936 323.925333a33.5872 33.5872 0 0 1-32.768 33.792zM675.293867 260.437333c0 2.048-1.570133 3.549867-3.072 4.573867-2.048 1.024-4.096 1.024-5.666134 0-39.389867-23.552-80.896-50.722133-112.64-73.250133-31.744-24.029867-53.248-38.912-55.773866-53.248 0-1.024 0-3.072 1.024-4.573867 2.525867-4.096 6.621867-4.096 9.693866-4.642133 25.6 0.546133 111.616 40.96 186.914134 82.466133a7.509333 7.509333 0 0 1 3.072 4.573867c0 2.048-0.546133 4.096-2.048 5.12a63.0784 63.0784 0 0 0-21.504 38.912z m63.488-34.816a44.032 44.032 0 1 1 0 88.064 44.032 44.032 0 0 1 0-88.064z m-28.194134 103.901867a5.461333 5.461333 0 0 1 5.666134-0.477867 65.194667 65.194667 0 0 0 45.056 0c0.477867-0.546133 1.501867-0.546133 2.048-0.546133a9.489067 9.489067 0 0 1 3.549866 1.024 6.280533 6.280533 0 0 1 2.594134 5.12 1274.538667 1274.538667 0 0 1-8.192 134.144 328.772267 328.772267 0 0 1-7.714134 46.08c-3.549867 10.786133-3.549867 19.456-14.813866 21.504-10.786133-2.525867-10.786133-10.717867-14.882134-21.504-8.669867-33.792-14.336-108.544-15.837866-179.677867 0-2.594133 1.024-4.642133 2.525866-5.666133z m212.992-142.336a1412.437333 1412.437333 0 0 1-113.664 75.229867c-1.501867 1.024-3.549867 1.024-5.597866 0.546133-1.570133-1.024-3.072-2.594133-3.072-4.642133a61.8496 61.8496 0 0 0-22.528-38.365867 4.846933 4.846933 0 0 1-2.048-5.12c0-2.048 1.024-3.618133 3.072-4.642133 75.776-41.437867 164.864-86.016 190.464-86.493867 3.072 0 6.621867 0.477867 9.216 4.096 1.024 1.501867 1.024 3.072 1.024 4.573867-2.048 13.858133-24.098133 29.696-56.866134 54.818133z m-179.2 8.669867h-10.24a21.162667 21.162667 0 0 1-20.48-21.504l-10.24-260.573867a21.162667 21.162667 0 0 1 20.48-21.504h31.266134a21.162667 21.162667 0 0 1 20.48 21.504l-10.24 260.573867a21.162667 21.162667 0 0 1-21.026134 21.504z"  horiz-adv-x="1024" />
      
      <glyph glyph-name="yanjizhushou-shangchuan_rongliang" unicode="&#58928;" d="M169.142857 496.457143l682.057143 0 0-231.862857-682.057143 0 0 231.862857ZM169.142857 362.057143l682.057143 0 0-97.28-682.057143 0 0 97.28ZM790.674286 237.714286H229.668571a88.137143 88.137143 0 0 0-87.954285 87.954285v110.445715a87.954286 87.954286 0 0 0 87.954285 87.771428h561.005715a87.954286 87.954286 0 0 0 87.954285-87.771428v-110.994286A88.137143 88.137143 0 0 0 790.674286 237.714286zM229.668571 469.028571a33.097143 33.097143 0 0 1-33.097142-32.914285v-110.994286A33.097143 33.097143 0 0 1 229.668571 292.571429h561.005715a33.097143 33.097143 0 0 1 33.097143 33.097142v110.445715a33.097143 33.097143 0 0 1-33.097143 32.914285zM169.142857 264.594286l682.057143 0 0-231.862857-682.057143 0 0 231.862857ZM169.142857 132.388571l682.057143 0 0-99.657142-682.057143 0 0 99.657142ZM790.674286 5.485714H229.668571a87.954286 87.954286 0 0 0-87.954285 87.771429v110.994286A87.954286 87.954286 0 0 0 229.668571 292.571429h561.005715a87.954286 87.954286 0 0 0 87.954285-87.771429v-111.542857a87.954286 87.954286 0 0 0-87.954285-87.771429zM229.668571 237.714286a32.914286 32.914286 0 0 1-33.097142-32.914286v-111.542857a33.097143 33.097143 0 0 1 33.097142-32.914286h561.005715a33.097143 33.097143 0 0 1 33.097143 32.914286v110.994286A32.914286 32.914286 0 0 1 790.674286 237.714286zM169.142857 730.148571l682.057143 0 0-231.862857-682.057143 0 0 231.862857ZM169.142857 596.48l682.057143 0 0-98.194286-682.057143 0 0 98.194286ZM790.674286 471.04H229.668571a87.954286 87.954286 0 0 0-87.954285 87.771429v110.994285a87.954286 87.954286 0 0 0 87.954285 87.771429h561.005715a87.954286 87.954286 0 0 0 87.954285-87.771429v-110.994285a87.954286 87.954286 0 0 0-87.954285-87.771429zM229.668571 702.72a33.097143 33.097143 0 0 1-33.097142-32.914286v-110.994285a32.914286 32.914286 0 0 1 33.097142-32.914286h561.005715a32.914286 32.914286 0 0 1 33.097143 32.914286v110.994285a33.097143 33.097143 0 0 1-33.097143 32.914286zM290.56 616.777143m-37.485714 0a37.485714 37.485714 0 1 1 74.971428 0 37.485714 37.485714 0 1 1-74.971428 0ZM284.342857 380.525714m-37.485714 0a37.485714 37.485714 0 1 1 74.971428 0 37.485714 37.485714 0 1 1-74.971428 0ZM279.222857 144.457143m-37.485714 0a37.485714 37.485714 0 1 1 74.971428 0 37.485714 37.485714 0 1 1-74.971428 0Z"  horiz-adv-x="1024" />
      
      <glyph glyph-name="fengdian" unicode="&#58915;" d="M492.77155555 357.376c42.43911111 0 76.8 34.47466667 76.8 76.8 0 42.43911111-34.36088889 76.8-76.8 76.8s-76.8-34.36088889-76.8-76.8c0-42.32533333 34.36088889-76.8 76.8-76.8zM460.23111111 301.28355554999996l-47.44533333-426.55288888h158.26488889l-47.55911112 426.55288888zM815.44533333 287.40266667000003c-56.20622222 41.64266667-129.36533333 90.45333333-197.85955555 131.41333333-3.072 1.82044445-6.59911111 1.93422222-9.67111111 0.45511111-3.072-1.36533333-5.23377778-4.20977778-5.80266667-7.62311111-4.43733333-27.19288889-18.88711111-50.51733333-39.59466667-67.12888889-2.61688889-2.16177778-4.20977778-5.57511111-3.86844444-8.87466666 0.22755555-3.41333333 2.27555555-6.48533333 5.23377778-8.30577778C695.75111111 254.63466667 851.62666667 176.92444445 896.22755555 175.78666667000005c4.89244445 0.11377778 11.49155555 0.79644445 16.27022223 7.50933333 1.59288889 2.95822222 2.048 5.57511111 2.048 7.85066667-3.98222222 24.91733333-42.55288889 52.11022222-99.10044445 96.256zM455.22488889 531.6835555499999c12.288 4.66488889 25.37244445 7.50933333 39.02577778 7.50933334 13.65333333 0 26.624-2.84444445 39.02577778-7.50933334 1.13777778-0.45511111 2.38933333-0.68266667 3.64088888-0.68266666 2.048 0 4.20977778 0.56888889 5.91644445 1.93422222 2.84444445 2.048 4.43733333 5.23377778 4.43733333 8.64711111-1.25155555 83.05777778-6.48533333 168.73244445-14.10844444 233.92711111-3.75466667 32.768-8.192 60.18844445-13.312 80.09955556-6.59911111 19.11466667-6.37155555 33.67822222-25.6 37.888-19.11466667-4.20977778-19.00088889-18.77333333-25.6-37.888-14.90488889-59.392-25.37244445-189.21244445-27.30666667-314.02666667 0-3.41333333 1.59288889-6.59911111 4.43733333-8.64711111 2.73066667-2.048 6.25777778-2.38933333 9.44355556-1.25155556zM427.23555555 337.46488889c0.34133333 3.41333333-1.024 6.82666667-3.64088888 8.98844444-20.02488889 17.06666667-33.792 40.96-37.54666667 68.26666667-0.45511111 3.52711111-2.61688889 6.37155555-5.68888889 7.85066667-3.072 1.47911111-6.82666667 1.36533333-9.67111111-0.45511112C301.51111111 380.928 229.26222222 333.82399999999996 174.08 293.77422221999996c-55.52355555-42.21155555-92.95644445-67.81155555-96.93866667-92.84266667-0.11377778-1.93422222 0.45511111-5.12 2.16177778-7.85066666 4.89244445-7.28177778 11.71911111-7.50933333 16.95288889-7.62311111 44.82844445 1.024 194.67377778 71.68 325.632 143.81511111 3.072 1.82044445 5.00622222 4.77866667 5.34755555 8.192zM88.064 198.65599999999995zM383.54488889 735.45955555l-16.15644444 44.6008889c-141.53955555-51.2-242.34666667-186.82311111-242.46044445-345.88444445h47.55911111c-0.11377778 138.69511111 87.95022222 256.56888889 211.05777778 301.28355555zM239.04711111 163.49866667000003c36.97777778-36.52266667 81.35111111-64.85333333 129.70666667-82.944l16.72533333 44.48711111c-42.21155555 15.81511111-80.66844445 40.50488889-113.09511111 72.36266667l-33.33688889-33.90577778zM706.10488889 193.08088888999998c-31.17511111-29.80977778-68.38044445-52.90666667-108.43022222-68.03911111l16.72533333-44.48711111c46.19377778 17.408 88.63288889 43.91822222 124.47288889 78.16533333l-32.54044444 34.36088889h-0.22755556zM808.96 434.28977778h47.44533333c0 158.94755555-100.92088889 294.57066667-242.46044444 345.88444444l-16.15644444-44.71466667C721.00977778 690.85866667 808.96 572.87111111 808.96 434.28977778z"  horiz-adv-x="1024" />
      
      <glyph glyph-name="fengdian1" unicode="&#58956;" d="M482.2 478.3h34.2c3.3 0 5.9-2.7 5.9-6.1v-586.6c0-3.3-2.7-6.1-5.9-6.1h-34.2c-3.3 0-5.9 2.7-5.9 6.1V472.3c-0.1 3.3 2.6 6 5.9 6zM205 868.5l-27.4-31.7 228.5-261.2 34.7 22.4-34.7 93.3zM532.2 542l325.3 39.2 7.3-39.2-265-65.3-69.4 26.1zM411.6 445l38.3-26.1-126.1-302.3-40.2 18.6 76.8 257.5zM352.5 517.8h136.6l-25.2-36.5-21.3-18h-90.1l-15.1 18z"  horiz-adv-x="1024" />
      
      <glyph glyph-name="fenglifadianji-tianchong" unicode="&#58993;" d="M512 512a64 64 0 0 0 32.896-118.912v-137.28h0.64l64-255.808H768v-64H256v64h161.6l63.68 254.784h-0.384l-0.064 137.344A64 64 0 0 0 512 512z m257.984-65.152c51.008-29.44 75.904-93.056 74.56-190.848-84.032-50.048-151.552-60.288-202.56-30.848-35.392 20.48-58.176 57.28-68.416 110.592A128.128 128.128 0 0 1 640 448l-0.064 2.752c51.328 17.856 94.656 16.512 130.048-3.84z m-385.92 3.904L384 448a128 128 0 0 1 66.304-112.192c-10.112-53.376-32.896-90.24-68.288-110.72-51.008-29.44-118.528-19.136-202.56 30.912-1.28 97.792 23.552 161.408 74.56 190.848 35.392 20.48 78.72 21.76 130.048 3.904zM512 832c85.312-47.744 128-101.12 128-160 0-40.896-20.544-79.104-61.632-114.56a127.36 127.36 0 0 1-132.672 0.128C404.544 592.832 384 631.104 384 672c0 58.88 42.688 112.256 128 160z"  horiz-adv-x="1024" />
      
      <glyph glyph-name="save" unicode="&#60425;" d="M899.42 529.38l-242.04 242.04a60 60 0 0 1-42.42 17.58H167a60 60 0 0 1-60-60v-690a60 60 0 0 1 60-60h690a60 60 0 0 1 60 60V486.96a60 60 0 0 1-17.58 42.42zM302 729h180V624H302V729z m420-690H302V174h420v-135z m135 0H782V204a30 30 0 0 1-30 30H272a30 30 0 0 1-30-30v-165H167v690H242V594a30 30 0 0 1 30-30h240a30 30 0 0 1 30 30V729h72.96l242.04-242.04V39z"  horiz-adv-x="1024" />
      
      <glyph glyph-name="fullscreen" unicode="&#60435;" d="M377.84 684H242a30 30 0 0 1-30-30v-129.27a30 30 0 0 1 60 0V624h105.84a30 30 0 0 1 0 60zM767.81 684H632a30 30 0 1 1 0-60h105.81v-99.27a30 30 0 1 1 60 0V654a30 30 0 0 1-30 30zM377.84 134.70000000000005H272V234a30 30 0 1 1-60 0v-129.3a30 30 0 0 1 30-30h135.84a30 30 0 1 1 0 60zM767.81 264a30 30 0 0 1-30-30v-99.3H632a30 30 0 1 1 0-60h135.81a30 30 0 0 1 30 30V234a30 30 0 0 1-30 30zM887 819h-750c-33.09 0-60-26.91-60-60v-750c0-33.09 26.91-60 60-60h750c33.09 0 60 26.91 60 60v750c0 33.09-26.91 60-60 60z m-750-810v750h750l0.06-750H137z"  horiz-adv-x="1024" />
      
      <glyph glyph-name="message" unicode="&#58909;" d="M659.718 3.740000000000009H364.286c-17.448 0-31.603-14.14-31.603-31.587 0-17.446 14.156-31.586 31.603-31.586h295.432c17.447 0 31.603 14.139 31.603 31.586s-14.156 31.586-31.603 31.586zM870.281 160.73199999999997l-58.05 102.012c-16.684 40.295-71.605 33.411-65.107-5.143 0.527-1.356 0.927-2.764 1.646-4.03l71.295-125.453c0.72-1.234 1.509-2.417 2.263-3.342H200.785l73.147 128.76c2.57 4.474 3.908 9.58 3.908 14.808V451.022c0 87.852 68.279 178.943 159.387 212.071 22.52 7.284 39.35 10.507 49.495 11.93 11.551 1.593 33.489 2.021 48.811-0.035 14.91-2.04 32.494-6.324 53.3-13.128 88.95-33.728 156.03-124.356 156.03-210.837v-98.359c1.547-28.015 55.228-30.905 59.778 0v98.358c0 53.386-19.297 109.583-54.363 158.206-29.524 40.864-69.201 73.719-113.947 96.09-1.358 67.536-56.503 122.115-124.346 122.115-67.558 0-122.46-54.14-124.262-121.286-44.394-21.856-84.388-54.563-114.236-95.497-35.75-48.999-55.426-105.676-55.426-159.628v-174.795l-70.815-124.613c-10.215-17.824-10.147-39.983 0.17-57.807 10.284-17.773 29.479-28.81 50.113-28.81h628.878c31.945 0 57.962 25.964 57.962 57.876 0 14.019-5.005 27.421-14.088 37.859zM511.985 771.288c29.59 0 54.618-18.99 64.15-45.332-40.433 7.984-87.045 8.224-128.154 0.472 9.662 26.101 34.588 44.86 64.004 44.86z"  horiz-adv-x="1024" />
      
      <glyph glyph-name="Qpower" unicode="&#58934;" d="M512.000512-62.074521000000004c-60.335157 0-118.879528 11.795651-174.008103 35.056424-53.237505 22.464641-101.046371 54.621015-142.097322 95.574752-41.055045 40.955784-73.291237 88.660272-95.814206 141.782144-23.325241 55.017034-35.152615 113.444748-35.152615 173.661202 0 60.216453 11.827373 118.644167 35.152615 173.661202 22.522969 53.122895 54.759161 100.825336 95.814206 141.78419 41.050951 40.953737 88.859817 73.109088 142.097322 95.572706 55.128575 23.261797 113.672946 35.057447 174.008103 35.057447 60.335157 0 118.881574-11.794627 174.008103-35.057447 53.239552-22.463618 101.047394-54.619992 142.097322-95.572706 41.054021-40.957831 73.290213-88.661296 95.813183-141.785214 23.324218-55.016011 35.152615-113.443725 35.152615-173.660178 0-60.21543-11.828396-118.644167-35.152615-173.661202-22.522969-53.121871-54.759161-100.825336-95.813183-141.782144-41.049928-40.953737-88.85777-73.110111-142.097322-95.574752C630.882086-50.27887099999998 572.335668-62.074521000000004 512.000512-62.074521000000004zM512.000512 783.514089c-220.849944 0-400.523069-179.221848-400.523069-399.515113 0-220.293265 179.673126-399.514089 400.523069-399.514089 220.847897 0 400.522046 179.220824 400.522046 399.514089C912.522558 604.293265 732.848409 783.514089 512.000512 783.514089zM727.316415 494.847597c-10.744715 42.387389-26.796296 77.707826-47.695279 104.96768-41.324174 54.242392-97.775884 81.742722-167.782308 81.742722-43.490513 0-82.912361-11.549034-117.145024-34.304294-32.498158-21.248953-57.812707-50.937113-75.233472-88.215134-23.850198-50.157353-35.94363-106.387006-35.94363-167.127392 0-36.138058 3.986801-71.253834 11.853979-104.399745 10.527774-43.422975 26.696012-79.398328 48.039109-106.911962 41.756009-54.482869 98.423637-82.108043 168.428014-82.108043 48.15372 0 90.52269 14.028505 125.902478 41.678238 0.493234 0.379647 0.955768 0.733711 1.385557 1.061169l49.722448-47.558156c6.361895-5.892197 11.95631-8.756431 17.108656-8.756431 5.198395 0 9.827833 2.136663 13.791098 6.387477 4.680603 5.124717 7.055696 11.362792 7.055696 18.537192 0 6.797823-3.755534 13.864776-11.214413 21.057595l-44.499493 41.639353c43.037189 55.604412 66.049299 120.578216 68.413136 193.172581 0.541329 13.824867 0.641613 17.495466 0.653893 18.756179 0.222057 1.970888 0.327458 4.78191 0.327458 8.574283C740.483296 426.184775 736.054427 460.437903 727.316415 494.847597zM665.853575 254.360408c-5.680373-15.187911-15.555278-31.598672-29.382191-48.841382l-70.048379 66.028832c-4.338818 4.072759-9.335622 6.139837-14.85022 6.139837-7.30129 0-19.547195-2.895957-19.547195-22.288632 0-7.78122 2.650363-14.33038 7.930623-19.520589l63.547315-60.484559c-30.592762-19.205411-62.174038-28.933983-93.946672-28.933983-31.705096 0-61.416791 9.249665-88.314395 27.497261-27.39186 18.535145-47.783283 42.259476-60.60531 70.500681-19.615757 43.434232-29.560246 95.708805-29.560246 155.37165 0 29.380144 3.671623 57.907874 10.920724 84.810594 8.922207 33.689287 22.13309 62.072731 39.256072 84.34806 33.236985 42.86732 77.06212 64.602344 130.257669 64.602344 33.415041 0 63.992453-9.372461 90.906429-27.866674 25.066909-17.075911 45.161572-40.473807 59.719126-69.540819 20.210297-40.404222 30.457686-86.787622 30.457686-137.860834C692.595636 349.584166 683.601798 301.155177 665.853575 254.360408z"  horiz-adv-x="1024" />
      
      <glyph glyph-name="Ppower" unicode="&#58935;" d="M727.6582 583.9161690000001c-6.545066 21.894659-16.540721 40.441061-29.709649 55.126528-13.227256 14.750959-29.964452 25.957185-49.743938 33.311687-19.544125 7.264451-42.578748 10.94733-68.465325 10.94733L388.219347 683.3017130000001c-22.887266 0-50.16861-9.428743-50.16861-54.345746l0-520.097422c0-11.392468 1.974981-19.886933 6.03546-25.968441 4.429893-6.632047 11.336186-10.135848 19.974937-10.135848 8.634658 0 15.540951 3.5038 19.970844 10.134825 4.063549 6.082532 6.03853 14.576997 6.03853 25.969465L390.070508 330.57216000000005l190.017728 0c44.972261 0 81.881892 13.631462 109.701494 40.518832 15.863293 15.282055 27.918863 34.654264 35.82595 57.57223 7.816013 22.657023 11.778254 49.402153 11.778254 79.490425C737.393935 536.814408 734.118332 562.304965 727.6582 583.9161690000001zM577.636395 386.161223L390.070508 386.161223 390.070508 597.741036c0 18.255783 2.986007 23.789823 4.270257 25.321712 1.453095 1.739621 5.90857 4.649903 19.437701 4.649903l163.858952 0c72.260767 0 107.387799-39.505759 107.387799-120.774691C685.025217 425.668005 649.898185 386.161223 577.636395 386.161223zM512.000512-62.074521000000004c-60.335157 0-118.879528 11.794627-174.008103 35.056424-53.237505 22.464641-101.046371 54.621015-142.097322 95.573729-41.055045 40.956807-73.291237 88.660272-95.814206 141.783167-23.325241 55.017034-35.152615 113.443725-35.152615 173.660178s11.827373 118.644167 35.152615 173.661202c22.522969 53.122895 54.759161 100.825336 95.814206 141.78419 41.050951 40.953737 88.859817 73.109088 142.097322 95.572706 55.128575 23.261797 113.672946 35.057447 174.008103 35.057447 60.33618 0 118.881574-11.794627 174.009126-35.057447 53.238528-22.463618 101.047394-54.619992 142.097322-95.572706 41.054021-40.957831 73.290213-88.661296 95.813183-141.785214 23.324218-55.016011 35.151591-113.443725 35.151591-173.660178s-11.827373-118.643144-35.151591-173.660178c-22.522969-53.122895-54.759161-100.825336-95.813183-141.783167-41.049928-40.953737-88.858794-73.109088-142.097322-95.573729C630.882086-50.27989400000001 572.336692-62.074521000000004 512.000512-62.074521000000004zM512.000512 783.514089c-220.84892 0-400.522046-179.221848-400.522046-399.515113 0-220.292242 179.673126-399.513066 400.522046-399.513066 220.847897 0 400.522046 179.220824 400.522046 399.513066C912.522558 604.292242 732.848409 783.514089 512.000512 783.514089z"  horiz-adv-x="1024" />
      
      <glyph glyph-name="wugonggongshuai" unicode="&#58981;" d="M511.33-64.22c-247.03 0-448 200.97-448 448s200.97 448 448 448 448-200.97 448-448-200.96-448-448-448z m0 809.29c-199.22 0-361.29-162.07-361.29-361.29s162.07-361.29 361.29-361.29 361.29 162.07 361.29 361.29-162.07 361.29-361.29 361.29zM501.57 151.56c-99.92 0-181.21 81.29-181.21 181.21V448.24c0 99.92 81.29 181.21 181.21 181.21s181.21-81.29 181.21-181.21v-115.47c0-99.92-81.29-181.21-181.21-181.21z m0 391.18c-52.1 0-94.5-42.4-94.5-94.5v-115.47c0-52.1 42.4-94.5 94.5-94.5s94.5 42.4 94.5 94.5V448.24c0 52.11-42.4 94.5-94.5 94.5zM658.95 138.1c-9.03 0-18.12 2.82-25.91 8.67l-120.13 89.98c-19.19 14.34-23.09 41.52-8.75 60.69 14.34 19.14 41.44 23.12 60.69 8.69l120.13-89.98c19.19-14.34 23.09-41.52 8.75-60.69-8.53-11.38-21.57-17.36-34.78-17.36z"  horiz-adv-x="1024" />
      
      <glyph glyph-name="zidongkongzhi" unicode="&#58966;" d="M574.55 806.1c4.05 9.45 0 19.8-8.55 24.75-8.55 5.4-19.8 3.15-26.55-4.95l-414-497.25c-14.4-22.5 6.3-27.45 12.6-27.45h220.95c20.25 0 27.9-5.85 14.4-33.75l-119.7-299.25c-13.5-31.95 18-37.35 34.2-21.6l474.3 496.35c10.35 10.35 21.6 29.7-11.7 29.7h-272.25c-19.8 0-41.85 2.25-21.6 31.95l117.9 301.5z m342-826.65h-51.75l-34.2 90.9h-134.55l-31.95-90.9h-48.15l126.9 333.9h45.9l127.8-333.9z m-95.4 128.7l-50.4 138.6c-1.35 4.5-3.15 12.15-5.4 23.4h-0.9c-1.35-9.9-3.15-17.55-5.4-23.4l-49.95-138.6h112.05z"  horiz-adv-x="1024" />
      
      <glyph glyph-name="rongliangguanli" unicode="&#58919;" d="M799.61-31.92H228.07A123.67 123.67 0 0 0 104.4 91.75v84.69a123.67 123.67 0 0 0 123.67 123.67h571.54a123.66 123.66 0 0 0 123.66-123.67v-84.69a123.66 123.66 0 0 0-123.66-123.67z m41.78 124.23v83.57a41.22 41.22 0 0 1-41.23 41.22H227.51a41.21 41.21 0 0 1-41.22-41.22v-83.57a41.21 41.21 0 0 1 41.22-41.22h572.65a41.22 41.22 0 0 1 41.23 41.22zM799.61 217.1H228.07A123.67 123.67 0 0 0 104.4 340.77v84.69a123.67 123.67 0 0 0 123.67 123.67h571.54a123.66 123.66 0 0 0 123.66-123.67v-84.69A123.66 123.66 0 0 0 799.61 217.1z m41.78 124.23V424.9a41.22 41.22 0 0 1-41.23 41.22H227.51a41.21 41.21 0 0 1-41.22-41.22v-83.57a41.21 41.21 0 0 1 41.22-41.22h572.65a41.22 41.22 0 0 1 41.23 41.22zM799.61 466.12H228.07A123.67 123.67 0 0 0 104.4 589.79v84.69A123.67 123.67 0 0 0 228.07 798.15h571.54a123.66 123.66 0 0 0 123.66-123.67v-84.69a123.66 123.66 0 0 0-123.66-123.67z m41.78 124.23v83.57a41.22 41.22 0 0 1-41.23 41.22H227.51a41.21 41.21 0 0 1-41.22-41.22v-83.57a41.21 41.21 0 0 1 41.22-41.22h572.65a41.22 41.22 0 0 1 41.23 41.22zM268.18 632.14a41.5 40.94 90 1 1 81.88 0 41.5 40.94 90 1 1-81.88 0ZM268.18 383.12a41.5 40.94 90 1 1 81.88 0 41.5 40.94 90 1 1-81.88 0ZM268.18 134.1a41.5 40.94 90 1 1 81.88 0 41.5 40.94 90 1 1-81.88 0Z"  horiz-adv-x="1024" />
      
      <glyph glyph-name="zidongxunjian" unicode="&#58979;" d="M915.49624906 306.75518062000003c-19.49981906 0-35.24967187 15.74985375-35.24967281 35.24967188 0 166.49845219-111.74896125 312.74709281-272.99746219 355.49669531-18.74982562 5.24995125-29.99972156 24.74977031-25.49976281 43.49959594s24.74977031 29.99972156 43.49959594 25.49976281c191.998215-50.99952562 326.24696719-224.99790844 326.24696719-423.74606062-0.74999344-20.24981156-16.49984625-35.99966531-35.99966532-35.99966531zM512.74999344 792.75066281c26.24975625 0 47.24956031-20.999805 47.24956031-47.24956125s-20.999805-47.24956031-47.24956031-47.24956031-47.24956031 20.999805-47.24956125 47.24956031c-0.74999344 26.24975625 20.999805 47.24956031 47.24956125 47.24956125m0 71.24933719c-65.24939344 0-118.49889844-53.249505-118.49889844-118.49889844s53.249505-118.49889844 118.49889844-118.49889844 118.49889844 53.249505 118.4988975 118.49889844S577.99938687 864 512.74999344 864z m-1.49998688-959.991075c-45.74957438 0-91.49914969 7.49993063-134.99874468 21.7497975-29.24972813 9.74990906-56.99947031 21.7497975-83.24922563 37.49965125-17.24983969 9.74990906-23.24978344 31.4997075-12.74988187 48.74954719 9.74990906 17.24983969 31.4997075 23.24978344 48.74954718 12.74988093 143.99866125-83.24922562 326.99695969-59.24944875 443.99587219 59.24944969 14.24986781 14.24986781 36.74965875 14.24986781 50.99952562 0s14.24986781-36.74965875 0-50.99952562c-83.24922562-83.24922562-195.74818031-129.74879344-312.74709281-128.99880094zM861.49675063 188.25628218999998c8.24992313 0 16.49984625-2.24997938 23.24978437-6.74993719 22.49979094-12.74988187 30.74971406-41.99961 17.24983969-64.4994-8.24992313-14.99986031-23.99977687-23.99977687-41.24961657-23.99977687-8.24992313 0-16.49984625 2.24997938-23.24978437 6.74993718-22.49979094 12.74988187-30.74971406 41.99961-17.99983219 64.4994 8.99991656 14.99986031 24.74977031 23.99977687 41.99960906 23.99977688m0 71.24933812c-65.24939344 0-118.49889844-53.249505-118.49889843-118.49889844s53.249505-118.49889844 118.49889843-118.49889843 118.49889844 53.249505 118.49889844 118.49889844c0 42.7496025-22.49979094 81.74923969-59.24944875 102.74904468-17.99983313 10.4999025-38.24964469 15.74985375-59.24944969 15.74985375z m-737.99313843-57.74946375c-15.74985375 0-29.99972156 10.4999025-34.49967938 25.49976281C37.25441375 419.25413437 121.25363281 622.50224531 293.75202875 721.50132469c17.24983969 9.74990906 38.99963719 3.74996531 48.74954719-12.74988094 9.74990906-17.24983969 3.74996531-38.99963719-12.74988188-48.74954719-144.74865469-83.24922562-215.24799844-252.74765062-172.49839593-413.99615156 5.24995125-18.74982562-5.99994469-38.24964469-25.49976282-43.499595-2.24997938-0.74999344-5.24995125-0.74999344-8.24992312-0.74999344zM163.25324188 188.25628218999998c26.24975625 0 47.24956031-20.999805 47.99955374-47.24956032 0-17.24983969-8.99991656-32.99969344-23.99977687-41.99961-7.49993063-4.49995781-14.99986031-6.74993719-23.24978344-6.74993718-17.24983969 0-32.99969344 8.99991656-41.99961 23.99977687-13.49987437 22.49979094-5.24995125 51.74951906 17.24983969 64.4994 7.49993063 4.49995781 15.74985375 6.74993719 23.99977687 6.74993813m-0.7499925 71.99933062c-65.24939344 0-118.49889844-52.49951156-119.24889187-118.49889844 0-65.24939344 52.49951156-118.49889844 118.49889844-119.24889187 65.24939344 0 118.49889844 52.49951156 119.24889187 118.49889844 0 20.999805-5.24995125 41.24961656-15.74985375 59.24944968-20.999805 37.49965125-59.99944219 59.99944219-102.74904469 59.99944219zM574.99941406 276.00546655999995H458.00050156l-25.49976281-92.99913562h-73.49931656L474.50034875 543.7529775h84.74921156l116.24892-360.74664656h-74.99930344l-25.49976281 92.99913562z m-15.74985375 56.24947688l-10.49990156 39.74963062c-11.249895 37.49965125-20.999805 78.74926781-31.4997075 117.748905h-2.24997938c-8.99991656-39.74963063-20.24981156-80.24925375-30.74971406-117.748905l-10.4999025-39.74963062h85.499205z"  horiz-adv-x="1024" />
      
      <glyph glyph-name="fengjitaishu" unicode="&#58883;" d="M958.491676 137.686486A44.281081 44.281081 0 0 1 947.421405 165.362162L748.156541 331.416216C681.734919 386.767568 637.453838 392.302703 609.778162 392.302703H604.243027A44.281081 44.281081 0 0 1 593.172757 419.978378C626.383568 486.4 615.313297 552.821622 609.778162 558.356757L565.497081 868.324324C565.497081 884.92973 559.961946 896 543.356541 896 510.14573 896 515.680865 879.394595 510.14573 851.718919L454.794378 541.751351a188.194595 188.194595 0 0 1 27.675676-116.237837 27.675676 27.675676 0 0 1-16.605405-27.675676H449.259243C404.978162 397.837838 360.697081 359.091892 355.161946 359.091892a11983.567568 11983.567568 0 0 0-276.756757-193.72973C72.870054 154.291892 61.799784 143.221622 72.870054 126.616216s22.140541-11.07027 38.745946-11.07027l321.037838 110.702703 44.281081 33.21081-44.281081-254.616216V-94.789189H200.178162L194.643027-100.324324c-11.07027-11.07027 0-27.675676 11.07027-27.675676h675.286487C892.070054-111.394595 886.534919-94.789189 869.929514-94.789189H631.918703V-17.297297 10.378378L587.637622 259.459459c22.140541-33.210811 55.351351-38.745946 55.351351-38.745945l282.291892-110.702703h22.14054C952.956541 110.010811 958.491676 110.010811 958.491676 121.081081V137.686486zM488.005189 536.216216L532.28627 829.578378h11.070271l38.745945-276.756756s5.535135-55.351351-16.605405-110.702703L532.28627 447.654054 510.14573 442.118919C499.075459 453.189189 482.470054 491.935135 488.005189 536.216216z m83.027027-188.194594L559.961946 336.951351C515.680865 314.810811 476.934919 359.091892 499.075459 397.837838L510.14573 408.908108C548.891676 431.048649 593.172757 392.302703 571.032216 348.021622zM476.934919 320.345946S471.399784 276.064865 421.583568 253.924324a6365.405405 6365.405405 0 0 0-304.432433-105.167567L111.616 154.291892 371.767351 331.416216A143.913514 143.913514 0 0 0 449.259243 364.627027h11.070271a271.221622 271.221622 0 0 1 16.605405-38.745946v-5.535135zM598.707892 10.378378v-99.632432L593.172757-94.789189H471.399784L465.864649-89.254054V-11.762162-0.691892L515.680865 303.740541l16.605405-5.535136h11.070271l55.351351-287.827027zM903.140324 148.756757L654.059243 248.389189H648.524108C642.988973 253.924324 598.707892 264.994595 587.637622 320.345946L609.778162 359.091892c16.605405 0 55.351351-5.535135 116.237838-55.351351a3929.945946 3929.945946 0 0 0 177.124324-154.983784z"  horiz-adv-x="1024" />
      
      <glyph glyph-name="dashboard" unicode="&#59114;" d="M512 786.816c-63.530667 0-124.330667-12.416-182.314667-37.162667C271.786667 724.906667 221.781333 691.5840000000001 179.84 649.685333 137.941333 607.7866670000001 104.618667 557.781333 79.872 499.84 55.082667 441.813333 42.666667 381.05600000000004 42.666667 317.482667c0-64.981333 12.586667-126.421333 37.717333-184.40533301 25.130667-57.941333 60.032-108.586667 104.789333-151.93599998l653.65333299-2e-8c44.757333 43.349333 79.658667 94.037333 104.78933301 151.93600002C968.789333 191.10400000000004 981.333333 252.50133300000005 981.333333 317.482667c0 63.530667-12.416 124.330667-37.16266699 182.357333-24.746667 57.898667-58.026667 107.904-100.01066701 149.845333-41.856 41.898667-91.818667 75.221333-149.888 99.968C636.373333 774.4 575.573333 786.816 512 786.816L512 786.816zM810.624 48.213333000000034L213.418667 48.213333000000034c-69.162667 76.202667-103.765333 165.930667-103.76533299 269.312 0 72.618667 18.048 139.818667 53.97333299 201.68533301 35.968 61.824 84.864 110.72 146.688 146.688C372.138667 701.781333 439.381333 719.786667 512 719.786667s139.861333-18.005333 201.685333-53.888c61.781333-36.010667 110.72-84.864 146.688-146.688s53.973333-129.066667 53.97333299-201.68533299C914.304 214.144 879.701333 124.41600000000005 810.624 48.213333000000034L810.624 48.213333000000034 810.624 48.213333000000034zM229.162667 336.34133299999996L144.341333 352l8.40533301 47.146667 84.82133299-15.70133299L229.162667 336.34133299999996zM786.517333 383.48800000000006l84.82133301 15.744 8.36266699-47.104-84.864-15.786667L786.517333 383.48800000000006zM310.912 518.613333L255.36 584.661333l36.693333 30.336 55.424-66.005333L310.912 518.613333zM713.173333 518.613333l-36.693333 30.378667 55.552 66.005333 36.650667-30.336L713.173333 518.613333zM487.978667 686.293333l48.17066701 0 0-85.93066699-48.17066701 0L487.978667 686.293333zM514.090667 315.39200000000005L369.536 476.714667l80.64-196.992c-13.952-25.130667-13.525333-49.92 1.109333-74.368 10.410667-16.768 25.429333-27.434667 45.01333301-31.95733299 19.498667-4.48 37.674667-1.365333 54.44266699 9.42933299 16.725333 10.837333 27.392 25.856 31.95733299 45.09866701 4.565333 19.242667 1.578667 37.205333-8.87466699 53.97333299C559.829333 303.48800000000006 539.946667 314.66666699999996 514.090667 315.39200000000005L514.090667 315.39200000000005z"  horiz-adv-x="1024" />
      
      <glyph glyph-name="wugonggonglv" unicode="&#58925;" d="M620.12280533 670.80298347c-32.18257067 22.116512-68.75089493 33.3243072-108.70950186 33.3243072-63.610896 0-116.01727253-25.99143147-155.7630304-77.25170454-20.47703893-26.63761493-36.274704-60.57972693-46.94437654-100.86688213-8.66781333-32.169472-13.06011627-66.2840448-13.06011626-101.41810347 0-71.34545387 11.8932736-133.85499947 35.34908906-185.79529386 15.33376533-33.7718336 39.7195616-62.14170133 72.4740928-84.30624107 32.16401493-21.81961707 67.6942976-32.88223893 105.6062912-32.88223893 37.9971328 0 75.76067947 11.6356736 112.3442848 34.60030186l-75.99099093 72.33110294c-6.31448107 6.20642027-9.48318293 14.03812373-9.48318293 23.34338773 0 23.18948267 14.64392107 26.6518048 23.37176746 26.6518048 6.59609493 0 12.57220373-2.471216 17.75913814-7.34269973l83.76375253-78.95885227c16.5344448 20.6178464 28.34585493 40.2434944 35.13733333 58.40540587 21.22255147 55.95929493 31.98063787 113.87023893 31.98063787 172.15011946 0 61.07528-12.2545696 116.54120427-36.423152 164.85653867C674.12826773 622.40250987 650.0994016 650.38270293 620.12280533 670.80298347zM512.00054613 861.62693973c-264.41140587 0-478.7610368-213.8420704-478.7610368-477.62693973 0-263.7859616 214.34962987-477.62475733 478.7610368-477.62475733 264.41140587 0 478.75776213 213.83879573 478.75776214 477.62475733C990.7583072 647.78377813 776.411952 861.62693973 512.00054613 861.62693973zM784.83307947 406.2212992c-0.01528107-1.50521493-0.13644053-5.89642667-0.78262507-22.42868907-2.82705387-86.80911147-30.34771413-164.5094336-81.8110112-231.00086826l53.2141056-49.794352c8.9199552-8.5990464 13.4115872-17.05182827 13.4115872-25.17933547 0-8.58049067-2.84015253-16.039984-8.4375008-22.1699968-4.73940907-5.081056-10.27344853-7.63850347-16.4918752-7.63850347-6.1594848 0-12.85054293 3.42630187-20.457392 10.47319787l-59.4587296 56.86962773c-0.5141088-0.38967467-1.06642133-0.812096-1.6569376-1.26835413-42.30975467-33.06452373-92.97405333-49.83910507-150.55863147-49.83910507-83.71245013 0-151.47660587 33.036144-201.40958186 98.18827627-25.52316693 32.89970347-44.85737813 75.92113387-57.44595414 127.84505387-9.40786773 39.63660587-14.17456427 81.6309088-14.17456426 124.84335573 0 72.6356384 14.46163627 139.87695253 42.9821344 199.855248 20.82960213 44.57685547 51.10309333 80.0798496 89.96471466 105.4894976 40.9366144 27.21285013 88.0774656 41.0228448 140.0832512 41.0228448 83.7146336 0 151.22118827-32.88769707 200.63787307-97.74948267 24.993776-32.59953387 44.1871808-74.83615573 57.034448-125.52446933 10.4480928-41.14727893 15.74636267-82.10790613 15.74636267-121.7423296C785.2227552 411.93871467 785.0950464 408.57790507 784.83307947 406.2212992z"  horiz-adv-x="1024" />
      
      <glyph glyph-name="rifadianliang" unicode="&#59296;" d="M512 896C229.23 896 0 666.77 0 384s229.23-512 512-512 512 229.23 512 512S794.77 896 512 896zM332.793 162.74799999000004v-37.66799999h-65.919v525h433.184v-151.557c-18.718 5.381-38.491 8.271-58.939 8.271-2.336 0-4.661-0.051-6.97899999-0.12599999v82.20099999H332.793v-153.027H482.45999999c-15.495-17.307-28.207-37.15600001-37.41399999-58.856H332.793v-155.381h108.024a212.489 212.489 0 0 1 32.585-58.856H332.793z m302.988-44.82699999c-97.574 0-176.695 79.10000001-176.695 176.678 0 97.599 79.12 176.721 176.695 176.721 97.595 0 176.705-79.122 176.721-176.721 0-97.578-79.109-176.678-176.721-176.678zM707.183 318.456h-29.217c-6.338 0-23.899-3.154-30.052 0.58800001-1.175 4.23600001 2.72 12.027 3.741 15.73699999 3.03 10.759 6.029 21.549 9.059 32.309 4.39 15.675 8.781 31.35 13.171 47.056 1.731 6.122-6.338 8.75-9.708 4.112a215836.87600001 215836.87600001 0 0 0-105.368-144.85c-2.442-3.37 0.866-8.008 4.607-8.008h42.728c2.999 0 14.253 1.762 16.139-0.897 1.701-2.35-1.608-9.214-2.349-11.842-7.761-27.671-15.521-55.312-23.24999999-82.983-1.731-6.121 6.338-8.75 9.70799999-4.112 35.122 48.263 70.245 96.55599999 105.368 144.819 2.472 3.403-0.83599999 8.071-4.577 8.071z"  horiz-adv-x="1024" />
      
      <glyph glyph-name="nianfadianliang" unicode="&#59297;" d="M701.597 307.19399999999996H672.38000001c-6.338 0-23.899-3.154-30.05200001 0.588-1.175 4.23600001 2.721 12.027 3.741 15.737 3.03 10.759 6.029 21.549 9.059 32.30900001 4.39 15.675 8.781 31.35 13.171 47.056 1.731 6.122-6.338 8.75-9.708 4.112a215834.725 215834.725 0 0 0-105.367-144.85000001c-2.442-3.37 0.866-8.008 4.607-8.008h42.728c2.999 0 14.253 1.762 16.139-0.897 1.70000001-2.35-1.608-9.214-2.35000001-11.842-7.76-27.671-15.521-55.311-23.24999999-82.983-1.731-6.122 6.338-8.75 9.708-4.112 35.123 48.263 70.245 96.55599999 105.368 144.819 2.473 3.403-0.835 8.071-4.577 8.071zM512 896C229.23 896 0 666.77 0 384c0-282.769 229.23-512 512-512s512 229.23 512 512S794.77 896 512 896z m-88.433-633.271H234.703v53.86699999h76.686V467.422h178.244v84.032H363.205c-23.512-38.784-54.601-78.309-93.267-118.50600001a4715.294 4715.294 0 0 0-12.436 19.392c-4.145 7.171-11.07599999 17.944-20.726 32.32 49.743 45.955 89.122 104.837 118.138 176.68200001l62.179-6.464c-8.291-18.685-16.581-35.923-24.871-51.713h321.253v-51.711H545.594v-75.813c-29.818-13.919-55.874-34.539-76.234-59.931H367.35v-99.11400001h57.992a214.326 214.326 0 0 1-2.709-33.96299999c0-6.713 0.326-13.349 0.934-19.904z m206.628-156.071c-97.573 0-176.695 79.10000001-176.69499999 176.678 0 97.599 79.121 176.721 176.69499999 176.721 97.595 0 176.705-79.122 176.72100001-176.721 0-97.577-79.109-176.678-176.72100001-176.678z"  horiz-adv-x="1024" />
      
      <glyph glyph-name="yuefadianliang" unicode="&#59300;" d="M706.507 283.928H677.29c-6.338 0-23.9-3.154-30.052 0.587-1.175 4.237 2.72 12.027 3.741 15.737 3.03 10.76 6.029 21.55 9.059 32.309 4.39 15.675 8.781 31.35 13.171 47.056 1.731 6.122-6.338 8.75-9.708 4.112a219415.702 219415.702 0 0 0-105.367-144.85c-2.442-3.37 0.866-8.008 4.607-8.008h42.728c2.999 0 14.253 1.762 16.139-0.897 1.7-2.35-1.608-9.214-2.35-11.841-7.76-27.671-15.52-55.312-23.25-82.983-1.731-6.122 6.338-8.75 9.708-4.112 35.123 48.262 70.245 96.556 105.367 144.819 2.473 3.402-0.835 8.071-4.576 8.071zM367.842 571.877h270.1v-90.034h-270.1zM512 896C229.23 896 0 666.77 0 384s229.23-512 512-512 512 229.23 512 512S794.77 896 512 896z m-83.575-617.308h-67.509c-7.719-60.022-34.628-119.25-80.799-177.758l-25.394 25.394c-12.336 10.785-21.57 19.262-27.702 25.394 32.319 32.32 53.096 67.706 62.331 106.193 10.748 36.937 16.16 94.651 16.16 173.141V629.591h397.069v-166.548c-19.659 5.991-40.52 9.224-62.139 9.224-49.844 0-95.683-17.135-131.961-45.827H367.842c0-33.871-0.793-64.639-2.308-92.342h75.509a211.714 211.714 0 0 1-12.618-55.406z m206.68-195.3c-97.573 0-176.695 79.099-176.695 176.678 0 97.599 79.121 176.721 176.695 176.721 97.595 0 176.705-79.122 176.721-176.721 0-97.578-79.11-176.678-176.721-176.678z"  horiz-adv-x="1024" />
      
      <glyph glyph-name="yougonggongshuai" unicode="&#58901;" d="M549.647059 567.717647h-121.976471v-171.670588h121.976471c36.141176 0 64.752941 6.023529 81.317647 19.57647 16.564706 13.552941 25.6 36.141176 25.6 66.258824 0 30.117647-9.035294 51.2-27.105882 64.752941-16.564706 15.058824-43.670588 21.082353-79.811765 21.082353zM512 896C228.894118 896 0 667.105882 0 384s228.894118-512 512-512 512 228.894118 512 512S795.105882 896 512 896z m42.164706-572.235294h-126.494118v-195.764706h-84.329412V640h212.329412c123.482353 0 185.223529-52.705882 185.22353-156.611765 0-105.411765-61.741176-159.623529-186.729412-159.623529z"  horiz-adv-x="1024" />
      
      <glyph glyph-name="fengsu" unicode="&#58885;" d="M968.02133333 269.312c-13.65333333 50.7904-46.42133333 93.3888-91.7504 119.6032-40.41386667 23.48373333-119.05706667 38.22933333-240.29866666 45.32906667-2.73066667 4.9152-5.46133333 9.8304-8.73813334 14.19946666 54.0672 107.58826667 80.2816 182.95466667 80.2816 229.92213334 0 108.68053333-87.92746667 196.608-196.608 196.608s-196.608-87.92746667-196.608-196.608c0-48.60586667 28.39893333-127.24906667 85.74293334-240.8448-0.54613333-1.09226667-1.09226667-2.18453333-1.6384-2.73066667-124.5184-7.09973333-205.89226667-21.84533333-247.3984-45.8752-45.32906667-25.66826667-78.09706667-68.26666667-91.7504-119.05706667s-6.5536-103.76533333 19.6608-149.64053333c36.59093333-63.35146667 103.2192-98.304 170.93973333-98.304 33.31413333 0 67.1744 8.73813333 97.75786667 26.2144 41.50613333 23.48373333 93.93493333 84.65066667 163.29386666 190.60053333h6.00746667c68.26666667-104.31146667 121.78773333-167.1168 163.29386667-190.60053333 30.03733333-16.93013333 63.35146667-26.2144 97.75786666-26.2144 70.4512 0 135.9872 37.6832 170.3936 97.75786667 26.2144 45.8752 33.31413333 98.85013333 19.6608 149.64053333z m-587.63946666 409.6c0 72.0896 58.9824 131.072 131.072 131.072s131.072-58.9824 131.072-131.072c0-20.20693333-9.28426667-70.4512-66.08213334-185.68533333-18.0224 8.73813333-37.6832 13.65333333-58.9824 13.65333333-25.12213333 0-48.60586667-7.09973333-68.26666666-19.11466667-58.9824 119.05706667-68.8128 170.3936-68.8128 191.14666667z m-64.98986667-573.44c-62.2592-36.0448-142.5408-14.7456-179.13173333 48.05973333-17.47626667 30.03733333-22.39146667 65.536-13.1072 99.39626667s31.1296 62.2592 61.16693333 79.73546667c18.0224 10.37653333 67.1744 27.30666667 199.33866667 36.0448 1.6384-45.8752 26.2144-85.74293333 62.2592-108.68053334-69.90506667-104.8576-109.22666667-142.5408-130.52586667-154.55573333z m166.57066667 209.7152c-19.11466667 12.01493333-32.22186667 32.768-32.768 56.79786667v1.09226666c0 23.48373333 12.01493333 44.2368 30.03733333 56.25173334 10.92266667 7.64586667 24.02986667 12.01493333 38.22933333 12.01493333 10.37653333 0 20.20693333-2.18453333 28.94506667-6.5536 22.9376-10.92266667 39.3216-34.4064 39.3216-61.71306667v-1.6384c-0.54613333-25.66826667-15.83786667-48.05973333-37.6832-58.9824-9.28426667-4.9152-19.6608-7.64586667-30.58346667-7.64586666-13.1072 0-25.12213333 3.82293333-35.49866666 10.37653333z m409.6-162.2016c-22.9376-39.86773333-66.62826667-64.98986667-113.59573334-64.98986667-22.9376 0-44.78293333 6.00746667-64.98986666 17.47626667-21.2992 12.01493333-60.6208 49.152-128.88746667 151.27893333 38.77546667 22.39146667 65.536 63.35146667 67.1744 110.86506667 127.7952-8.73813333 174.76266667-25.66826667 192.23893333-35.49866667 30.03733333-17.47626667 51.88266667-45.8752 61.16693334-79.73546666 9.28426667-33.86026667 4.36906667-69.35893333-13.1072-99.39626667zM512 20.821333330000016c-20.20693333 0-40.41386667 1.6384-60.07466667 4.9152-18.0224 3.2768-30.03733333 20.20693333-26.76053333 37.6832 3.2768 18.0224 20.20693333 30.03733333 37.6832 26.76053334 32.22186667-5.46133333 65.536-5.46133333 97.75786667 0 18.0224 3.2768 34.95253333-8.73813333 37.6832-26.76053334 3.2768-18.0224-8.73813333-34.95253333-26.76053334-37.6832-19.11466667-3.2768-39.3216-4.9152-59.52853333-4.9152zM211.62666667 448.98986667c-3.82293333 0-7.64586667 0.54613333-10.92266667 2.18453333-16.93013333 6.00746667-25.66826667 25.12213333-19.6608 42.05226667 14.19946667 38.77546667 34.4064 74.27413333 61.16693333 105.94986666 11.4688 13.65333333 32.22186667 15.83786667 46.42133334 3.82293334 13.65333333-11.4688 15.83786667-32.22186667 3.82293333-46.42133334-21.84533333-25.66826667-38.22933333-54.61333333-49.69813333-86.28906666-5.46133333-13.1072-18.0224-21.2992-31.1296-21.2992z m600.74666666 0.54613333c-13.1072 0-25.66826667 8.192-30.58346666 21.2992-11.4688 31.67573333-28.39893333 60.6208-50.24426667 86.28906667-11.4688 13.65333333-9.8304 34.4064 3.82293333 46.42133333 13.65333333 11.4688 34.4064 9.8304 46.42133334-3.82293333 26.76053333-31.67573333 47.5136-67.1744 61.16693333-105.94986667 6.00746667-16.93013333-2.73066667-36.0448-19.6608-42.05226667-3.82293333-1.09226667-7.64586667-2.18453333-10.92266667-2.18453333zM512-110.25066666999999c-29.4912 0-58.9824 2.73066667-87.38133333 8.192-18.0224 3.2768-29.4912 20.20693333-26.2144 38.22933334 3.2768 18.0224 20.20693333 29.4912 38.22933333 26.2144 49.69813333-9.28426667 101.5808-9.28426667 151.27893333 0 18.0224 3.2768 34.95253333-8.73813333 38.22933334-26.2144 3.2768-18.0224-8.73813333-34.95253333-26.2144-38.22933334-28.94506667-5.46133333-58.43626667-8.192-87.92746667-8.192zM88.74666667 495.4112c-3.82293333 0-7.64586667 0.54613333-11.4688 2.18453333-16.93013333 6.00746667-25.66826667 25.12213333-19.6608 42.05226667 19.6608 52.97493333 47.5136 101.5808 84.10453333 144.72533333 11.4688 13.65333333 32.22186667 15.83786667 46.42133333 3.82293334 13.65333333-11.4688 15.83786667-32.22186667 3.82293334-46.42133334-31.67573333-37.13706667-56.25173333-79.18933333-72.63573334-125.06453333-4.36906667-13.1072-16.93013333-21.2992-30.58346666-21.2992z m845.96053333 0.54613333c-13.1072 0-25.66826667 8.192-30.58346667 21.2992-16.93013333 45.32906667-41.50613333 87.38133333-73.18186666 125.06453334-11.4688 13.65333333-9.8304 34.4064 3.82293333 46.42133333 13.65333333 11.4688 34.4064 9.8304 46.42133333-3.82293333 36.59093333-43.14453333 64.98986667-91.7504 84.65066667-144.72533334 6.00746667-16.93013333-2.18453333-36.0448-19.11466667-42.05226666-4.36906667-1.09226667-8.192-2.18453333-12.01493333-2.18453334z"  horiz-adv-x="1024" />
      
      <glyph glyph-name="fengxiang" unicode="&#58992;" d="M767.554783 246.427826H436.313043c-16.027826 0-29.384348 13.356522-29.384347 29.384348 0 16.027826 13.356522 29.384348 29.384347 29.384348h331.24174c16.027826 0 29.384348-13.356522 29.384347-29.384348 0-16.027826-13.356522-29.384348-29.384347-29.384348zM332.132174 99.506087H221.718261c-16.027826 0-29.384348 13.356522-29.384348 29.384348 0 16.027826 13.356522 29.384348 29.384348 29.384348h110.413913c16.027826 0 29.384348-13.356522 29.384348-29.384348 0-16.027826-13.356522-29.384348-29.384348-29.384348zM627.756522 616.848696h-110.413913c-16.027826 0-29.384348 13.356522-29.384348 29.384347 0 16.027826 13.356522 29.384348 29.384348 29.384348H627.756522c16.027826 0 29.384348-13.356522 29.384348-29.384348 0-16.027826-13.356522-29.384348-29.384348-29.384347zM572.549565 99.506087c-16.027826 0-29.384348 13.356522-29.384348 29.384348 0 16.027826 13.356522 29.384348 29.384348 29.384348 16.027826 0 29.384348-13.356522 29.384348-29.384348 0-16.027826-13.356522-29.384348-29.384348-29.384348zM254.664348 616.848696c-16.027826 0-29.384348 13.356522-29.384348 29.384347 0 16.027826 13.356522 29.384348 29.384348 29.384348 16.027826 0 29.384348-13.356522 29.384348-29.384348 0-16.027826-13.356522-29.384348-29.384348-29.384347zM908.243478 340.368696c-16.027826 0-29.384348 13.356522-29.384348 29.384347s13.356522 29.384348 29.384348 29.384348c24.486957 0 44.076522 20.034783 44.076522 44.076522s-20.034783 44.076522-44.076522 44.076522c-16.027826 0-29.384348 13.356522-29.384348 29.384348 0 16.027826 13.356522 29.384348 29.384348 29.384347 56.542609 0 102.845217-46.302609 102.845218-102.845217s-46.302609-102.845217-102.845218-102.845217zM908.688696 340.368696h-110.413913c-16.027826 0-29.384348 13.356522-29.384348 29.384347s13.356522 29.384348 29.384348 29.384348h110.413913c16.027826 0 29.384348-13.356522 29.384347-29.384348s-13.356522-29.384348-29.384347-29.384347zM11.130435 340.368696c0 56.542609 46.302609 102.845217 102.845217 102.845217 16.027826 0 29.384348-13.356522 29.384348-29.384348 0-16.027826-13.356522-29.384348-29.384348-29.384348-24.486957 0-44.076522-20.034783-44.076522-44.076521s20.034783-44.076522 44.076522-44.076522c16.027826 0 29.384348-13.356522 29.384348-29.384348 0-16.027826-13.356522-29.384348-29.384348-29.384348-56.542609 0-102.845217 46.302609-102.845217 102.845218zM862.831304 202.351304c0-56.542609-46.302609-102.845217-102.845217-102.845217-16.027826 0-29.384348 13.356522-29.384348 29.384348 0 16.027826 13.356522 29.384348 29.384348 29.384348 24.486957 0 44.076522 20.034783 44.076522 44.076521 0 24.486957-20.034783 44.076522-44.076522 44.076522-16.027826 0-29.384348 13.356522-29.384348 29.384348 0 16.027826 13.356522 29.384348 29.384348 29.384348 56.542609 0.445217 102.845217-46.302609 102.845217-102.845218zM115.756522 237.523478c-14.246957 0-25.377391 13.356522-25.377392 29.384348 0 16.027826 11.575652 29.384348 25.377392 29.384348h174.970435c14.246957 0 25.377391-13.356522 25.377391-29.384348 0-16.027826-11.575652-29.384348-25.377391-29.384348H115.756522zM777.349565 485.509565c4.006957-4.006957 6.233043-9.349565 6.233044-15.137391s-2.226087-11.130435-6.233044-15.137391l-71.234782-79.248696c-2.226087-2.226087-4.006957-4.006957-7.123479-6.233044-3.116522-0.890435-6.233043-2.226087-9.349565-2.226086H441.210435V117.76c0-6.233043-2.226087-11.130435-7.123478-15.137391-4.006957-4.006957-10.24-6.233043-16.027827-6.233044s-11.130435 2.226087-16.027826 6.233044c-4.006957 4.006957-7.123478 9.349565-7.123478 15.137391V368.862609H212.813913c-6.233043 0-11.130435 2.226087-16.027826 7.123478-4.006957 4.006957-7.123478 10.24-7.123478 16.027826V549.62087c0 6.233043 2.226087 11.130435 7.123478 16.027826 4.006957 4.006957 10.24 7.123478 16.027826 7.123478H690.086957c3.116522 0 6.233043-0.890435 9.349565-2.226087 3.116522-0.890435 4.897391-3.116522 7.123478-6.233044l70.789565-78.803478z m-98.393043-72.125217l50.754782 57.878261-50.754782 55.652174H235.074783v-113.530435h443.881739z"  horiz-adv-x="1024" />
      
      <glyph glyph-name="fengxiang1" unicode="&#58922;" d="M512.1 883.2c277.1 0 500-225 500-500s-225-500-500-500-500 225-500 500 225 500 500 500z m214.6-270.8L249.6 310.3c-2.1-2.1-4.2-4.2-2.1-6.2 0-2.1 2.1-4.2 6.2-4.2l175-6.2 14.6-175c0-2.1 2.1-4.2 4.2-6.2h2.1c2.1 0 4.2 2.1 6.2 2.1L735 601.9c2.1 2.1 0 6.2-2.1 8.3 0 2.2-4.1 2.2-6.2 2.2z"  horiz-adv-x="1024" />
      
      </font>
</defs>
</svg>
