<?xml version="1.0" standalone="no"?>
<!DOCTYPE svg PUBLIC "-//W3C//DTD SVG 1.1//EN" "http://www.w3.org/Graphics/SVG/1.1/DTD/svg11.dtd" >
<!--
2013-9-30: Created.
-->
<svg>
<metadata>
Created by iconfont
</metadata>
<defs>

<font id="iconfont" horiz-adv-x="1024" >
  <font-face
    font-family="iconfont"
    font-weight="500"
    font-stretch="normal"
    units-per-em="1024"
    ascent="896"
    descent="-128"
  />
    <missing-glyph />
    
    <glyph glyph-name="monitor" unicode="&#59066;" d="M170.65984 810.65984l682.65984 0q53.00224 0 90.50112-37.49888t37.49888-90.50112l0-426.65984q0-53.00224-37.49888-90.50112t-90.50112-37.49888l-298.65984 0 0-85.34016 128 0q17.67424 0 30.16704-12.4928t12.4928-30.16704-12.4928-30.16704-30.16704-12.4928l-341.34016 0q-17.67424 0-30.16704 12.4928t-12.4928 30.16704 12.4928 30.16704 30.16704 12.4928l128 0 0 85.34016-298.65984 0q-53.00224 0-90.50112 37.49888t-37.49888 90.50112l0 426.65984q0 53.00224 37.49888 90.50112t90.50112 37.49888zM853.34016 725.34016l-682.65984 0q-17.67424 0-30.16704-12.4928t-12.4928-30.16704l0-426.65984q0-17.67424 12.4928-30.16704t30.16704-12.4928l682.65984 0q17.67424 0 30.16704 12.4928t12.4928 30.16704l0 426.65984q0 17.67424-12.4928 30.16704t-30.16704 12.4928z"  horiz-adv-x="1024" />

    
    <glyph glyph-name="print" unicode="&#58990;" d="M309.432889 199.04711099999997M717.738667 480.725333m-22.648889 0a3.185 3.185 0 1 1 45.297778 0 3.185 3.185 0 1 1-45.297778 0ZM781.880889 593.749333l-20.16 0L761.720889 701.447111c0 39.210667-31.900444 71.111111-71.111111 71.111111L352.099556 772.558222c-39.210667 0-71.111111-31.900444-71.111111-71.111111l0-107.697778-38.869333 0c-54.897778 0-99.555556-44.657778-99.555556-99.555556L142.563556 270.151111c0-54.897778 43.804444-99.555556 97.649778-99.555556l40.768 0 0-118.264889c0-39.210667 31.900444-71.111111 71.111111-71.111111l338.510222 0c39.210667 0 71.111111 31.900444 71.111111 71.111111L761.713778 170.595556l31.409778 0c48.696889 0 88.305778 44.657778 88.305778 99.555556L881.429333 494.193778C881.436444 549.0915560000001 836.778667 593.749333 781.880889 593.749333zM337.877333 701.447111c0 7.708444 6.513778 14.222222 14.222222 14.222222l338.510222 0c7.708444 0 14.222222-6.513778 14.222222-14.222222l0-107.697778L337.877333 593.749333 337.877333 701.447111zM704.832 52.33066699999995c0-7.708444-6.513778-14.222222-14.222222-14.222222L352.099556 38.10844399999996c-7.708444 0-14.222222 6.513778-14.222222 14.222222L337.877333 316.43022199999996c0 7.708444 6.513778 14.222222 14.222222 14.222222l338.510222 0c7.708444 0 14.222222-6.513778 14.222222-14.222222L704.832 52.33066699999995zM824.547556 270.151111c0-23.125333-14.385778-42.666667-31.416889-42.666667l-31.409778 0L761.720889 316.43022199999996c0 39.210667-31.900444 71.111111-71.111111 71.111111L352.099556 387.541333c-39.210667 0-71.111111-31.900444-71.111111-71.111111L280.988444 227.48444400000005l-40.768 0c-22.478222 0-40.760889 19.136-40.760889 42.666667L199.459556 494.193778c0 23.530667 19.136 42.666667 42.666667 42.666667l539.754667 0c23.530667 0 42.666667-19.136 42.666667-42.666667L824.547556 270.151111zM626.083556 210.65955599999995L405.589333 210.65955599999995c-11.783111 0-21.333333 9.550222-21.333333 21.333333s9.550222 21.333333 21.333333 21.333333l220.494222 0c11.783111 0 21.333333-9.550222 21.333333-21.333333S637.866667 210.65955599999995 626.083556 210.65955599999995zM626.083556 108.38755600000002L405.589333 108.38755600000002c-11.783111 0-21.333333 9.550222-21.333333 21.333333s9.550222 21.333333 21.333333 21.333333l220.494222 0c11.783111 0 21.333333-9.550222 21.333333-21.333333S637.866667 108.38755600000002 626.083556 108.38755600000002z"  horiz-adv-x="1024" />

    
    <glyph glyph-name="draggable" unicode="&#58903;" d="M896 352L128 352C110.32 352 96 366.32000000000005 96 384 96 401.68 110.32 416 128 416L896 416C913.68 416 928 401.68 928 384 928 366.32000000000005 913.68 352 896 352ZM896 672L128 672C110.32 672 96 686.3199999999999 96 704 96 721.6800000000001 110.32 736 128 736L896 736C913.68 736 928 721.6800000000001 928 704 928 686.3199999999999 913.68 672 896 672ZM128 96L896 96C913.68 96 928 81.67999999999995 928 64 928 46.32000000000005 913.68 32 896 32L128 32C110.32 32 96 46.32000000000005 96 64 96 81.67999999999995 110.32 96 128 96Z"  horiz-adv-x="1024" />

    
    <glyph glyph-name="radio-active" unicode="&#59167;" d="M512 830.016611c-245.919634 0-446.016611-200.095256-446.016611-446.016611 0-245.952318 200.064292-446.016611 446.016611-446.016611S958.016611 138.047682 958.016611 384C958.016611 629.919634 757.952318 830.016611 512 830.016611zM512 1.9833889999999883c-210.655557 0-382.016611 171.392017-382.016611 382.016611 0 210.655557 171.359333 382.016611 382.016611 382.016611 210.624593 0 382.016611-171.359333 382.016611-382.016611C894.016611 173.375407 722.624593 1.9833889999999883 512 1.9833889999999883zM512 543.99914c-88.223841 0-160.00086-71.775299-160.00086-159.99914s71.775299-160.00086 160.00086-160.00086 160.00086 71.775299 160.00086 160.00086S600.223841 543.99914 512 543.99914z"  horiz-adv-x="1024" />

    
    <glyph glyph-name="iframe" unicode="&#59212;" d="M64 768l0-768 960 0L1024 768 64 768zM512 704l0-128L128 576 128 704 512 704zM128 320 128 512l384 0 0-192L128 320zM128 256l256 0 0-192L128 64 128 256zM960 64 448 64l0 192 512 0L960 64zM960 320 576 320 576 512 576 576 576 704l384 0L960 320z"  horiz-adv-x="1024" />

    
    <glyph glyph-name="property" unicode="&#59415;" d="M288 256C270.08 256 256 241.91999999999996 256 224 256 206.08000000000004 270.08 192 288 192 305.92 192 320 206.08000000000004 320 224 320 241.91999999999996 305.92 256 288 256zM288 640C270.08 640 256 625.9200000000001 256 608 256 590.0799999999999 270.08 576 288 576 305.92 576 320 590.0799999999999 320 608 320 625.9200000000001 305.92 640 288 640zM288 448C270.08 448 256 433.92 256 416 256 398.08 270.08 384 288 384 305.92 384 320 398.08 320 416 320 433.92 305.92 448 288 448zM768 832L192 832C121.6 832 64 774.4 64 704l0-576c0-70.4 57.6-128 128-128l576 0c70.4 0 128 57.6 128 128L896 704C896 774.4 838.4 832 768 832zM832 128c0-35.2-28.8-64-64-64L192 64c-35.2 0-64 28.8-64 64L128 704c0 35.2 28.8 64 64 64l576 0c35.2 0 64-28.8 64-64L832 128zM672 640l-256 0C398.08 640 384 625.9200000000001 384 608 384 590.0799999999999 398.08 576 416 576l256 0C689.92 576 704 590.0799999999999 704 608 704 625.9200000000001 689.92 640 672 640zM672 448l-256 0C398.08 448 384 433.92 384 416 384 398.08 398.08 384 416 384l256 0C689.92 384 704 398.08 704 416 704 433.92 689.92 448 672 448zM672 256l-256 0C398.08 256 384 241.91999999999996 384 224 384 206.08000000000004 398.08 192 416 192l256 0c17.92 0 32 14.08 32 32C704 241.91999999999996 689.92 256 672 256z"  horiz-adv-x="1024" />

    
    <glyph glyph-name="number" unicode="&#58976;" d="M243.2 192C239.542857 218.17456600000003 238.323809 241.157107 238.323809 274.992518L238.323809 598.024938C238.323809 636.3291770000001 239.542857 665.695761 243.2 703.361596 221.257143 700.80798 212.114285 700.169576 181.028572 700.169576L124.952381 700.169576C96.304762 700.169576 82.895238 700.80798 64 704L64 622.922693C86.552381 625.476309 104.228572 626.753117 126.780952 626.753117L156.038095 626.753117 156.038095 274.992518C156.038095 241.79551400000003 154.819048 216.89775399999996 151.161905 192L243.2 192ZM496.693955 195.75550099999998C528.498724 195.75550099999998 548.376705 194.50366699999995 571.733333 192L571.733333 274.621027C555.333999 271.491443 530.486522 269.613692 499.178702 269.613692L360.032834 269.613692C367.487077 293.39853300000004 373.450472 305.91687 388.358957 325.94621099999995 400.782696 342.845966 425.630172 369.13447399999995 447.495951 388.537898 512.09939 444.244499 517.068885 449.251834 530.983472 465.525672 555.333999 494.317848 566.266888 524.361858 566.266888 565.672372 566.266888 651.4229829999999 512.596339 704 425.630172 704 375.935219 704 336.676206 684.596577 311.82873 648.293398 293.441597 621.378973 284.496506 595.716381 277.539212 548.1467L348.602995 537.506113C352.081642 566.2982890000001 355.560289 580.06846 364.00843 595.090465 376.432168 619.501222 398.297948 632.01956 427.121021 632.01956 469.361731 632.01956 495.700056 605.731052 495.700056 563.1687039999999 495.700056 531.246944 481.785469 510.591687 436.066112 471.158924 386.371159 429.222494 371.462673 414.826406 354.06944 395.422983 321.76772 358.493887 299.404992 318.435208 285.987354 272.74327600000004 279.527011 250.21027200000003 276.048364 228.303181 273.066667 192.62591999999995 290.4599 195.12958700000001 298.411092 195.75550099999998 337.173156 195.75550099999998L496.693955 195.75550099999998ZM601.6 319.38461600000005C612.072727 283.692308 619.636364 267.692308 634.181818 250.46153600000002 667.345453 210.46153600000002 713.890912 192 781.963635 192 844.218182 192 893.090912 209.230771 925.090912 241.84615699999995 946.618182 264.61538399999995 960 298.461539 960 331.692308 960 368 951.27273 393.846154 932.07273 416.615384 911.709088 440.615384 890.181818 451.076923 848.87273 457.846154 879.709088 466.461539 892.509088 471.384616 905.309088 481.846154 930.32727 501.538461 945.454547 535.384616 945.454547 572.307692 945.454547 652.307692 882.618182 704 785.454547 704 738.909088 704 701.090912 692.923077 671.418182 670.1538459999999 644.07273 649.230769 630.690909 627.692308 616.145455 582.1538459999999L699.345453 567.384616C706.32727 592.615384 712.145453 603.0769230000001 723.781818 614.769231 737.745453 627.0769230000001 758.690912 633.8461540000001 787.2 633.8461540000001 836.654547 633.8461540000001 864 609.8461540000001 864 567.384616 864 520 829.67273 491.692308 771.490912 491.692308 746.47273 491.692308 733.67273 492.307692 715.054547 494.769231L715.054547 418.461539C734.836365 420.923077 751.709088 421.538461 777.309088 421.538461 802.909088 421.538461 830.254547 415.384616 844.218182 406.769231 865.163635 393.846154 876.8 370.461539 876.8 342.15384600000004 876.8 293.538461 840.145453 262.15384600000004 782.545453 262.15384600000004 754.618182 262.15384600000004 731.345453 270.15384600000004 712.145453 286.15384600000004 697.6 298.461539 692.363635 308.307692 684.8 336.61538399999995L601.6 319.38461600000005ZM64 128L960 128 960 64 64 64 64 128Z"  horiz-adv-x="1024" />

    
    <glyph glyph-name="image" unicode="&#58966;" d="M841.71335 830.709995L182.285626 830.709995c-64.511269 0-116.995621-52.484352-116.995621-116.995621L65.290005 54.28665000000001c0-64.511269 52.484352-116.995621 116.995621-116.995621l659.427724 0c64.511269 0 116.995621 52.484352 116.995621 116.995621L958.708971 713.714374C958.708971 778.225643 906.225643 830.709995 841.71335 830.709995zM182.285626 788.166039l659.427724 0c41.051975 0 74.451666-33.398668 74.451666-74.451666l0-136.557142c-150.09446-5.26184-290.370297-66.084091-396.978337-172.692131-49.960879-49.961902-89.841168-107.331517-118.694309-169.625282-83.496669 70.835302-204.372667 75.376735-292.65841 13.617136L107.833961 713.714374C107.833961 754.767372 141.232628 788.166039 182.285626 788.166039zM107.833961 54.28665000000001L107.833961 193.37238200000002c76.54228 74.311473 198.833511 74.234725 275.272437-0.24457-24.303522-65.298192-37.026288-135.112234-37.026288-206.91149 0-2.223644 0.343831-4.366448 0.977257-6.381337L182.285626-20.165016000000037C141.232628-20.165016000000037 107.833961 13.233652000000006 107.833961 54.28665000000001zM841.71335-20.165016000000037L387.646807-20.165016000000037c0.633427 2.01489 0.977257 4.157693 0.977257 6.381337 0 146.71755 57.053414 284.572244 160.647817 388.166647 98.570993 98.570993 228.166583 154.963351 366.894158 160.204725L916.166039 54.28665000000001C916.165016 13.233652000000006 882.766348-20.165016000000037 841.71335-20.165016000000037zM312.397986 482.541317c60.8376 0 110.332874 49.494251 110.332874 110.332874s-49.494251 110.332874-110.332874 110.332874-110.332874-49.494251-110.332874-110.332874S251.559363 482.541317 312.397986 482.541317zM312.397986 660.662087c37.378306 0 67.788919-30.40959 67.788919-67.788919s-30.40959-67.788919-67.788919-67.788919-67.788919 30.40959-67.788919 67.788919S275.018657 660.662087 312.397986 660.662087z"  horiz-adv-x="1024" />

    
    <glyph glyph-name="info" unicode="&#58896;" d="M768 512C732.672 512 704 483.328 704 448 704 412.672 732.672 384 768 384 803.328 384 832 412.672 832 448 832 483.328 803.328 512 768 512L768 512ZM512 64C474.624 64 438.528 68.35199999999998 403.84 75.74400000000003L253.184-14.816000000000031 255.2 133.63199999999995C139.712 203.072 64 317.88800000000003 64 448 64 660.064 264.576 832 512 832 759.424 832 960 660.064 960 448 960 235.904 759.424 64 512 64L512 64ZM512 896C229.248 896 0 695.392 0 448 0 306.592 75.04 180.67200000000003 192 98.59199999999998L192-128 416.288 8.096000000000004C447.328 2.975999999999999 479.264 0 512 0 794.752 0 1024 200.57600000000002 1024 448 1024 695.392 794.752 896 512 896L512 896ZM256 512C220.672 512 192 483.328 192 448 192 412.672 220.672 384 256 384 291.328 384 320 412.672 320 448 320 483.328 291.328 512 256 512L256 512ZM512 512C476.672 512 448 483.328 448 448 448 412.672 476.672 384 512 384 547.328 384 576 412.672 576 448 576 483.328 547.328 512 512 512L512 512Z"  horiz-adv-x="1024" />

    
    <glyph glyph-name="dic" unicode="&#59028;" d="M945.125093 642.900561c-7.411807 10.317996-18.319228 17.775852-31.775704 23.152303 0.542352-12.384052-0.218988-22.547529-2.688225-30.688953L749.083162 103.76452800000004c-5.747911-18.897396-27.998681-30.676673-49.009204-30.676673L202.964086 73.087854c-43.091424 0-68.65259 12.494569-77.573773 37.697577-3.464915 9.78997-3.353374 17.312294 0.545422 23.155373 3.65218 5.470595 10.769274 8.080026 20.481474 8.080026l468.022393 0c33.390481 0 56.404638 6.061043 68.945255 18.304901 12.788258 12.524245 25.8876 40.370453 38.771025 82.9492l147.57508 487.949234c7.987928 26.415626 4.846378 50.096978-9.697873 70.018703-14.545274 19.937075-35.008328 30.160927-61.393255 30.160927L388.763746 831.403796c-4.846378 0-13.999852-1.614777-27.472702-4.848425l0.545422 1.616824c-68.948325 19.393699-71.946612-54.558593-95.334275-87.794555-7.303336-10.396791-21.957081-25.874297-23.696702-33.394574-1.490957-6.479575 3.356444-22.080901 2.703575-28.002774-1.490957-13.488199-6.695492-31.140231-15.087627-52.226478-8.314363-20.915355-15.618723-36.113499-22.6253-45.248553l-11.840676-12.385075c-6.060019-6.340405-10.239202-11.311627-11.840676-16.161075-1.632173-1.613754-1.89721-7.039323-0.544399-15.072277 1.351787-8.143471 2.068102-14.002922 1.616824-17.247826-1.708921-12.370749-5.918803-28.54615-13.472849-48.465828-7.535627-19.936051-15.198144-36.549427-22.607904-49.555649-1.198292-2.095731-4.320399-6.464225-9.169847-12.383028-4.832052-5.921873-8.096399-11.296277-9.152451-15.089673-1.647523-5.904477 2.161223-24.224728 0-31.233352-2.688225-13.450337-7.970532-30.201859-16.159028-49.530067-7.972579-18.895349-16.117073-35.585473-24.242124-49.04195-7.490601-12.399401-21.318538-26.384927-22.065552-36.608779-0.325411-4.350075 3.869121-16.162098 3.216251-22.065552L69.389882 186.71270500000003c-0.870834-8.113795-1.616824-12.930497-1.616824-14.544251-8.081049-21.539572-7.659447-44.194548 1.071402-68.403926 10.116405-28.03245 28.05087-51.65445 53.331649-70.548776 25.888624-19.329231 52.770877-29.089525 80.244602-29.089525l497.110895 0c23.153326 0 45.141106 8.204869 65.715701 23.713075 20.900006 15.756869 34.435277 34.465976 41.473577 57.621349l148.102083 487.965607C962.687074 599.329207 959.796234 622.527558 945.125093 642.900561zM338.681094 538.414859c2.968611 9.076726 13.472849 17.232476 22.60995 17.232476l327.470263 0c10.223852 0 14.824637-8.15575 11.840676-17.232476l-11.296277-34.463929c-2.983961-9.076726-13.472849-17.232476-22.6253-17.232476L339.210144 486.718453c-10.224876 0-14.824637 8.156774-11.840676 17.232476L338.681094 538.414859zM383.371946 676.293089c2.983961 9.076726 13.472849 17.232476 22.6253 17.232476l327.470263 0c10.242272 0 14.823614-8.156774 11.839653-17.232476l-11.310603-34.463929c-2.967588-9.074679-13.473873-17.247826-22.610974-17.247826L383.916345 624.581334c-10.224876 0-14.824637 8.17417-11.840676 17.247826L383.371946 676.293089z"  horiz-adv-x="1024" />

    
    <glyph glyph-name="overseas-orders" unicode="&#59034;" d="M77.577355 94.541469M72.971453 64.49412900000004M990.672452 64.49412900000004M68.379878 130.08498599999996M990.672452 130.08498599999996M124.351658-38.51698899999997M926.206208-38.51698899999997M167.526993 82.97708599999999M838.067822 657.709849L678.414659 657.709849 678.414659 801.412738c0 26.438139-21.461801 47.882544-47.90915 47.882544L406.997016 849.295282c-26.424836 0-47.883567-21.444405-47.883567-47.882544l0-143.702889L199.476659 657.709849c-17.489326 0-31.949666-14.46034-31.949666-31.922037l0-638.60242c0-17.460674 14.46034-31.91999 31.949666-31.91999L838.067822-44.734598000000005c17.445324 0 31.91999 14.462387 31.91999 31.91999L869.987812 625.787812C869.987812 643.249509 855.512123 657.709849 838.067822 657.709849zM523.255857 774.391315c31.648814 0 57.305147-25.656333 57.305147-57.305147s-25.656333-57.305147-57.305147-57.305147-57.305147 25.656333-57.305147 57.305147S491.608066 774.391315 523.255857 774.391315zM612.292706 112.04614500000002c0-13.120832-13.109576-25.691125-26.213012-25.691125L455.021799 86.35501899999997c-13.099343 0-26.204825 12.570293-26.204825 25.691125l52.419883 52.93256L481.236857 270.360823l-183.457312-26.756387 0 26.755364 183.458335 104.289228 0 52.961212c0 18.872836 3.496637 40.932248 10.481725 66.042135 7.16212 25.738198 16.783245 38.264489 28.314883 38.264489 12.04943 0 21.47715-13.097296 28.823466-38.789445 7.343245-25.681916 11.008728-47.167253 11.008728-65.517179l0-52.961212L743.329111 269.29658500000005l0-25.693172L559.867706 269.29658500000005l0-104.31788L612.292706 112.04614500000002z"  horiz-adv-x="1024" />

    
    <glyph glyph-name="list2" unicode="&#59067;" d="M960.159508 700.128961c0 26.770713-21.720697 48.483224-48.498574 48.483224L385.791042 748.612185c-26.777877 0-48.498574-21.712511-48.498574-48.483224l0-115.726721c0-26.770713 21.720697-48.483224 48.498574-48.483224l525.870916 0c26.777877 0 48.498574 21.712511 48.498574 48.483224L960.160531 700.128961zM929.7755 584.424752c0-10.014074-8.114818-18.121729-18.113543-18.121729L385.791042 566.3030229999999c-10.014074 0-18.113543 8.107655-18.113543 18.121729L367.677499 700.106448c0 10.006911 8.099469 18.114566 18.113543 18.114566l525.870916 0c9.998725 0 18.113543-8.107655 18.113543-18.114566L929.7755 584.424752zM960.159508 441.859779c0 26.7789-21.720697 48.483224-48.498574 48.483224L385.791042 490.343003c-26.777877 0-48.498574-21.704324-48.498574-48.483224l0-115.718535c0-26.771737 21.720697-48.491411 48.498574-48.491411l525.870916 0c26.777877 0 48.498574 21.719674 48.498574 48.491411L960.160531 441.859779zM929.7755 326.155571c0-10.005888-8.114818-18.121729-18.113543-18.121729L385.791042 308.03384100000005c-10.014074 0-18.113543 8.115841-18.113543 18.121729L367.677499 441.845453c0 10.006911 8.099469 18.114566 18.113543 18.114566l525.870916 0c9.998725 0 18.113543-8.107655 18.113543-18.114566L929.7755 326.155571zM960.159508 183.60594700000001c0 26.7789-21.720697 48.483224-48.498574 48.483224L385.791042 232.08917199999996c-26.777877 0-48.498574-21.704324-48.498574-48.483224l0-115.733884c0-26.76355 21.720697-48.484248 48.498574-48.484248l525.870916 0c26.777877 0 48.498574 21.720697 48.498574 48.484248L960.160531 183.60594700000001zM929.7755 67.90071499999999c0-9.998725-8.114818-18.114566-18.113543-18.114566L385.791042 49.78614900000002c-10.014074 0-18.113543 8.115841-18.113543 18.114566L367.677499 183.590598c0 9.998725 8.099469 18.10024 18.113543 18.10024l525.870916 0c9.998725 0 18.113543-8.100492 18.113543-18.10024L929.7755 67.90071499999999zM306.909483 700.128961c0 26.770713-21.720697 48.483224-48.498574 48.483224L112.33702 748.612185c-26.7789 0-48.498574-21.712511-48.498574-48.483224l0-115.726721c0-26.770713 21.719674-48.483224 48.498574-48.483224l146.07389 0c26.777877 0 48.498574 21.712511 48.498574 48.483224L306.909483 700.128961zM276.525476 584.424752c0-10.014074-8.114818-18.121729-18.113543-18.121729L112.33702 566.3030229999999c-10.014074 0-18.114566 8.107655-18.114566 18.121729L94.222453 700.106448c0 10.006911 8.100492 18.114566 18.114566 18.114566l146.07389 0c9.998725 0 18.113543-8.107655 18.113543-18.114566L276.524452 584.424752zM306.909483 441.859779c0 26.7789-21.720697 48.483224-48.498574 48.483224L112.33702 490.343003c-26.7789 0-48.498574-21.704324-48.498574-48.483224l0-115.718535c0-26.771737 21.719674-48.491411 48.498574-48.491411l146.07389 0c26.777877 0 48.498574 21.719674 48.498574 48.491411L306.909483 441.859779zM276.525476 326.155571c0-10.005888-8.114818-18.121729-18.113543-18.121729L112.33702 308.03384100000005c-10.014074 0-18.114566 8.115841-18.114566 18.121729L94.222453 441.845453c0 10.006911 8.100492 18.114566 18.114566 18.114566l146.07389 0c9.998725 0 18.113543-8.107655 18.113543-18.114566L276.524452 326.155571zM306.909483 183.60594700000001c0 26.7789-21.720697 48.483224-48.498574 48.483224L112.33702 232.08917199999996c-26.7789 0-48.498574-21.704324-48.498574-48.483224l0-115.733884c0-26.76355 21.719674-48.484248 48.498574-48.484248l146.07389 0c26.777877 0 48.498574 21.720697 48.498574 48.484248L306.909483 183.60594700000001zM276.525476 67.90071499999999c0-9.998725-8.114818-18.114566-18.113543-18.114566L112.33702 49.78614900000002c-10.014074 0-18.114566 8.115841-18.114566 18.114566L94.222453 183.590598c0 9.998725 8.100492 18.10024 18.114566 18.10024l146.07389 0c9.998725 0 18.113543-8.100492 18.113543-18.10024L276.524452 67.90071499999999z"  horiz-adv-x="1024" />

    
    <glyph glyph-name="attachment" unicode="&#59093;" d="M724.818 817.347c85.013-50.646 113.954-160.982 63.308-245.999l-228.815-386.175c-33.462-56.978-106.72-75.969-163.696-42.507-56.978 33.462-75.969 106.72-42.507 163.696l182.689 309.307c8.139 14.468 27.129 18.99 40.698 10.851 14.471-8.139 18.993-27.133 10.851-40.698l-182.685-309.307c-17.184-28.035-7.232-65.115 20.802-82.298 28.035-17.184 65.115-7.238 82.298 20.802l228.815 386.175c33.462 56.978 14.471 130.233-42.508 163.696-56.975 33.462-130.234 14.473-163.696-42.508l-274.034-463.959c-50.646-85.01-21.706-195.347 63.308-245.994s195.35-21.706 245.999 63.308l228.811 386.175c8.139 14.473 27.133 18.994 40.701 10.855 14.469-8.142 18.991-27.133 10.851-40.701l-228.815-386.178c-66.925-113.954-214.341-151.94-328.297-84.11-113.954 66.925-151.94 214.341-84.11 328.297l274.033 463.957c49.742 85.015 160.079 113.05 245.999 63.31v0 0zM724.818 817.347z"  horiz-adv-x="1024" />

    
    <glyph glyph-name="text" unicode="&#58901;" d="M164.38571167 754.78857422L845.60252631 754.78857422 845.60252631 525.4706320600001 815.47695622 525.4706320600001C815.47695622 525.4706320600001 757.98391164 665.49400461 690.15012121 677.71489112 622.31463038 689.93577836 575.16234033 681.52620877 575.16234033 681.52620877L574.31585391 96.88460453000005C574.31585391 96.88460453000005 593.14359029 57.36770577000004 624.21943791 54.56451589999995L693.01201589 54.56451589999995 693.01201589 14.201134339999953 317.02981842 14.201134339999953 317.98094616 55.568389040000056 378.23293799 56.52121863000002C378.23293799 56.52121863000002 423.47786844 70.64776723 423.47786844 103.54845370999999 423.47786844 136.39979272000005 424.4323999 676.81565858 424.4323999 676.81565858 424.4323999 676.81565858 350.01728102 687.07899144 311.35367902 677.66384686 272.74367336 668.29974653 204.85458547 611.90671361 194.51128249 529.22835192L164.38571167 528.2755230600001 164.38571167 754.78857422 164.38571167 754.78857422 164.38571167 754.78857422Z"  horiz-adv-x="1024" />

    
    <glyph glyph-name="check-box" unicode="&#59385;" d="M826.442552 636.246001l-15.518438 37.422308c-184.594205-118.078279-318.340325-266.601964-378.600781-341.447603L285.270139 452.695568l-65.22656-54.614875 254.308987-270.169209C518.392594 244.87845200000004 657.011698 473.647763 826.442552 636.246001zM898.217249 828.63473L125.781728 828.63473c-35.549657 0-64.370053-28.819372-64.370053-64.370053l0-760.527306c0-35.549657 28.819372-64.3721 64.370053-64.3721l772.435521 0c35.551704 0 64.370053 28.821419 64.370053 64.3721L962.587302 764.264677C962.587302 799.814334 933.769976 828.63473 898.217249 828.63473zM898.217249 2.889049L125.781728 2.889049 125.781728 765.117091l772.435521 0L898.217249 2.889049z"  horiz-adv-x="1024" />

    
    <glyph glyph-name="color" unicode="&#58885;" d="M954.757 604.527c-3.61 3.685-8.041 5.583-13.168 5.641-12.515 0.141-26.509-10.942-36.036-20.255l-340.912-331.177c-12.501-12.229-58.516-86.966-60.468-90.143l-7.452-12.121 12.135 7.428c3.217 1.968 78.963 48.374 91.438 60.569l340.911 331.178c15.151 14.815 26.671 35.436 13.552 48.879v0zM741.987 501.522c0-27.609-22.407-50.015-50.015-50.015-27.613 0-50.021 22.406-50.021 50.015 0 27.61 22.408 50.018 50.021 50.018 27.608 0 50.015-22.408 50.015-50.018v0zM216.812 326.469c-27.61 0-50.016 22.403-50.016 50.012 0 27.612 22.406 50.020 50.016 50.020 27.608 0 50.017-22.408 50.017-50.020 0-27.609-22.409-50.012-50.017-50.012v0zM291.838 501.522c0 27.61 22.408 50.018 50.015 50.018 27.61 0 50.018-22.408 50.018-50.018 0-27.609-22.407-50.015-50.018-50.015-27.609 0-50.015 22.382-50.015 50.015v0zM466.896 551.54c0 27.609 22.406 50.015 50.015 50.015 27.612 0 50.019-22.406 50.019-50.015 0-27.609-22.408-50.018-50.019-50.018-27.609 0-50.015 22.385-50.015 50.018v0zM853.74 381.916c-22.989-148.967-158.732-299.942-351.947-299.942-36.782 0-75.999 7.275-107.598 19.959-33.607 13.49-48.851 29.354-51.907 39.693-1.594 5.398-3.092 11.296-4.68 17.542-4.65 18.302-9.922 39.045-20.252 56.259-18.376 30.618-44.815 37.045-63.76 37.045-7.166 0-14.798-0.914-22.675-2.712-12.865-2.936-25.363-4.424-37.141-4.424-25.123 0-67.464 6.665-68.765 51.308-6.59 227.942 180.734 351.748 369.298 373.326 13.337 1.525 27.603 2.296 42.403 2.296 53.124 0 111.543-10.001 152.463-26.099 9.248-3.638 14.375-6.016 39.204-18.184 25.653-12.57 46.348-30.432 62.898-47.642l30.158 53.075c-18.027 17.013-40.334 34.407-67.102 47.525-24.89 12.197-31.893 15.514-43.565 20.106-47.339 18.623-114.033 30.194-174.053 30.194-17.027 0-33.545-0.901-49.102-2.678-115.514-13.22-220.687-59.057-296.143-129.075-85.507-79.342-128.872-184.654-125.405-304.555 1.005-34.47 15.117-63.017 40.81-82.556 22.381-17.020 52.431-26.014 86.903-26.014 16.187 0 33.097 1.985 50.268 5.903 3.582 0.818 6.794 1.232 9.548 1.232 11.469 0 16.99-10.044 26.853-48.854 1.654-6.509 3.365-13.241 5.281-19.73 9.434-31.912 39.343-58.784 86.495-77.711 38.319-15.382 85.544-24.203 129.567-24.203 54.104 0 106.474 10.135 155.659 30.123 46.241 18.793 88.502 45.763 125.607 80.165 35.744 33.141 65.271 71.791 87.757 114.884 22.526 43.163 36.888 88.666 42.691 135.269 0.262 2.117 0.509 4.321 0.732 6.548l0.148 1.469v0.057c0.222 2.336 0.404 4.695 0.571 7.065l-61.218-16.661z"  horiz-adv-x="1024" />

    
    <glyph glyph-name="date" unicode="&#58977;" d="M371.62496 818.5241599999999l274.34496 0 0-32.96256L371.62496 785.5616 371.62496 818.5241599999999 371.62496 818.5241599999999 371.62496 818.5241599999999M988.16 785.5616l0 32.96256-206.28992 0 0-32.96256 173.32736 0 0-159.0784L61.12256 626.4832 61.12256 785.5616l173.32736 0 0 32.96256L28.16 818.5241599999999l0-32.96256 0 0 0-846.85824 0 0 0-32.96256L988.16-94.25919999999996l0 32.96256 0 0L988.16 785.5616 988.16 785.5616 988.16 785.5616 988.16 785.5616M61.12256-61.301759999999945L61.12256 593.7254399999999l894.07488 0 0-655.0272L61.12256-61.301759999999945 61.12256-61.301759999999945 61.12256-61.301759999999945M286.12608 875.52l32.96768 0 0-168.86272-32.96768 0L286.12608 875.52 286.12608 875.52 286.12608 875.52M698.50624 875.52l32.96256 0 0-168.86272-32.96256 0L698.50624 875.52 698.50624 875.52 698.50624 875.52M285.70624 360.85248l0-37.00224c25.94304 15.52384 47.21152 31.68256 64.22528 48.70144l0-268.3904 38.92224 0L388.85376 438.69184l-23.39328 0C344.82688 408.704 318.24384 382.75584000000003 285.70624 360.85248L285.70624 360.85248 285.70624 360.85248M707.00544 248.99072c-3.18464 12.33408-8.4992 24.66816-15.51872 37.00736-7.23456 12.33408-18.49856 22.11328-34.02752 29.1328-15.52384 7.0144-31.68768 11.0592-48.70656 11.69408-16.79872 0.64-35.08736-3.61472-54.44096-12.544 6.37952 20.62336 12.96896 48.70144 19.3536 83.57888l124.40576 0 0 35.09248-153.7536 0c-22.11328-103.78752-34.45248-159.50336-37.00736-167.3728l32.96256-3.82464c10.4192 14.24896 23.6032 23.39328 39.98208 27.21792 16.16384 3.82976 30.83776 3.82976 43.81184 0 12.97408-3.82464 23.6032-11.69408 32.11264-23.39328 8.50432-11.69408 12.97408-25.94304 13.61408-42.74688 0.63488-16.80384-1.92-32.10752-7.87456-45.72672-5.73952-13.60896-15.52384-24.66816-29.1328-33.17248-13.60896-8.50944-31.47264-10.63424-53.59616-6.80448-22.11328 3.82464-37.64224 23.38816-46.78656 58.48576l-35.09248-9.78432c6.3744-31.04768 18.49856-53.1712 35.9424-66.14016 17.43872-12.97408 35.94752-20.20352 55.50592-21.4784 19.3536-1.27488 36.58752 1.06496 51.47136 6.80448s27.64288 13.60896 37.85728 23.39328c10.4192 9.7792 18.07872 22.11328 23.39328 37.00736 5.10464 14.88384 8.07936 29.55776 8.71424 43.81184C711.4752 223.25760000000002 710.1952 236.65152 707.00544 248.99072L707.00544 248.99072 707.00544 248.99072M707.00544 248.99072L707.00544 248.99072z"  horiz-adv-x="1024" />

    
    <glyph glyph-name="communication" unicode="&#59119;" d="M764.672 624.896H62.72C28.16 624.896 0 596.736 0 562.1759999999999v-453.632c0-34.56 28.16-62.72 62.72-62.72h196.096l-9.216-71.168c-3.584-13.568-1.024-27.648 6.912-38.656 8.448-11.776 22.272-18.944 37.12-18.944 8.448 0 16.896 2.304 24.576 6.912 1.024 0.512 1.792 1.28 2.816 1.792l162.816 120.32h281.088c34.56 0 62.72 28.16 62.72 62.72V562.1759999999999c-0.256 34.56-28.416 62.72-62.976 62.72zM473.088 109.82399999999996c-6.912 0-13.568-2.304-18.944-6.144L317.44 2.5599999999999454l9.216 71.168c1.28 9.216-1.536 18.176-7.68 25.088-6.144 6.912-14.848 10.752-24.064 10.752l-231.168-1.024-1.024 452.608 700.928 1.024 1.024-452.608H473.088zM964.096 850.944H357.632c-33.024 0-59.904-26.88-59.904-59.904v-73.216h63.744V787.2H960v-402.688h-64v-63.744h68.352c33.024 0 59.904 26.88 59.904 59.904V791.04c-0.256 33.024-27.136 59.904-60.16 59.904z"  horiz-adv-x="1024" />

    
    <glyph glyph-name="page-seprator" unicode="&#58963;" d="M52.01009778 387.33384059h115.19286992v-57.59643496h-115.19408355v57.59643496z m172.79051852 0H397.59113482v-57.59643496H224.8006163v57.59643496z m230.38816711 0h115.19286992v-57.59643496H455.18999703v57.59643496z m172.79173214 0H800.77103408v-57.59643496H627.98051555v57.59643496z m230.38695348 0h115.19286994v-57.59643496h-115.19286994v57.59643496z m-0.70269155 460.521472l0.70269155-402.92382341H167.2029677l-1.07770311 402.92382341 58.57704771 0.20631704 0.09709037-345.53249185H800.77103408l-0.23423053 345.32617481h57.12918756z m-691.43514073-920.67157334l0.97333095 344.95844505 690.46180978 0.0861677v-345.66599111h-57.33550459l0.44054756 287.98096119H224.8006163l0.10922667-287.36079645h-58.68020622z"  horiz-adv-x="1024" />

    
    <glyph glyph-name="editor" unicode="&#58983;" d="M112.538 704.804c151.956-0.359 303.902-0.144 455.859-0.149 78.617 0 264.77-0.179 343.398 0.113 32.42 0.113 55.06 14.848 64.799 40.755 16.358 43.54-14.188 85.315-63.928 85.535-115.733 0.512-338.99 0.164-454.718 0.164-114.847 0.01-229.698 0.138-344.54-0.072-35.456-0.072-58.235-15.642-67.236-44.57-13.414-43.11 17.26-81.664 66.366-81.776zM912.67 334.418c-115.732 0.512-338.99 0.159-454.717 0.159-114.846 0.01-229.698 0.138-344.54-0.072-35.456-0.072-58.235-15.642-67.236-44.57-13.42-43.11 17.255-81.659 66.36-81.781 151.957-0.359 303.903-0.139 455.86-0.149 78.617 0 264.77-0.18 343.398 0.118 32.42 0.107 55.06 14.848 64.799 40.75 16.369 43.546-14.182 85.325-63.923 85.545zM912.67 83.53800000000001c-115.732 0.512-338.99 0.159-454.717 0.159-114.846 0.01-229.698 0.138-344.54-0.072-35.456-0.072-58.235-15.642-67.236-44.57-13.42-43.11 17.255-81.659 66.36-81.781 151.957-0.359 303.903-0.139 455.86-0.149 78.617 0 264.77-0.18 343.398 0.118 32.42 0.107 55.06 14.848 64.799 40.75 16.369 43.546-14.182 85.325-63.923 85.545zM912.67 585.298c-115.732 0.512-77.87 0.159-193.597 0.159-114.846 0.01-9.533 0.138-124.38-0.072-35.456-0.072-58.235-15.642-67.236-44.57-13.42-43.11 17.25-81.659 66.36-81.781 151.957-0.359 17.183-0.139 169.14-0.149 78.617 0 70.21-0.18 148.838 0.118 32.42 0.107 55.06 14.848 64.799 40.75 16.369 43.546-14.182 85.325-63.923 85.545zM53.76 662.38h437.76v-273.26H53.76V662.38z"  horiz-adv-x="1024" />

    
    <glyph glyph-name="message" unicode="&#58921;" d="M856.310302 214.95288600000003c-90.533946 79.216179-90.191138 306.134329-90.174766 308.447001 0 170.742732-144.504138 228.595348-168.145581 236.911758-8.220219 40.839127-43.681872 70.152756-85.489047 70.152756-41.644469 0-77.083609-29.167297-85.444021-69.803809-167.228699-58.416458-168.999019-235.475036-168.999018-237.260705 0-238.499929-86.288249-307.189358-87.458911-308.099077-48.219211-42.617633-50.593282-101.626585-50.675146-104.123452l-0.010233-0.429789 0.061398-0.429788c12.611226-93.133144 82.901105-88.61013 88.292905-88.118944h216.343304c1.729387-46.975894 40.49325-84.660168 87.888699-84.660168 47.400566 0 86.160335 37.684274 87.889723 84.660168h214.699873c27.085892 0 48.680722 7.971555 64.181765 23.677259 25.029046 25.366737 24.834618 61.495586 24.813129 62.949704-0.001023 68.195172-46.045709 104.784508-47.774073 106.127086z m-61.331857-69.518307c4.52813-4.963035 15.889899-19.880793 15.650445-29.909193H215.415676c1.888 8.113795 6.583952 22.561855 17.011442 29.427216 1.151219 0.76748 115.715465 84.415598 121.32216 377.539612 0.210801 6.344498 6.958482 155.426909 158.448732 159.616324 0.053212 0.005117 0.599657 0.020466 1.571798 0.020467 14.871709 0 145.673777-4.451382 158.13253-158.106948-0.159636-10.788717-2.421142-265.532609 123.076107-378.587478z"  horiz-adv-x="1024" />

    
    <glyph glyph-name="custom2" unicode="&#58932;" d="M693.632 260.288c0-17.728 14.336-32.064 32.064-32.064h256.64a32.128 32.128 0 0 1 0 64.192h-256.64a32.128 32.128 0 0 1-32.128-32.128zM982.272 156.22400000000005H610.56a32.128 32.128 0 1 1 0-64.192h371.84a32.128 32.128 0 0 1 0 64.192zM982.272 19.392000000000053H482.56a32.128 32.128 0 1 1 0-64.192h499.84a32.128 32.128 0 0 1 0 64.192zM91.968 273.08799999999997l47.36-47.36 184.192-184.128 502.464 502.4c42.496 42.56 38.592 115.648-8.768 162.944l-67.52 67.584c-47.36 47.36-120.448 51.328-162.944 8.832L84.288 280.832 10.752 11.583999999999946a33.792 33.792 0 0 1 41.536-41.6l269.312 73.408-55.104 55.168-174.912-47.744 47.68 174.912-47.36 47.36zM640 730.048c16.128 16.128 43.904 14.592 61.824-3.328L769.408 659.2c17.92-18.048 19.456-45.76 3.264-61.888L695.68 520.3199999999999 562.944 652.928 640 730.048zM509.76 599.6800000000001l132.672-132.672L318.08 142.72000000000003 185.408 275.39200000000005l324.352 324.352z"  horiz-adv-x="1024" />

    
    <glyph glyph-name="cascader" unicode="&#59029;" d="M128 384V672c0 16 12.8 32 32 32h384c19.2 0 32-12.8 32-32v-288c0-16-12.8-32-32-32h-32v-64h64c35.2 0 64 28.8 64 64V704c0 35.2-28.8 64-64 64H128c-35.2 0-64-28.8-64-64v-352c0-35.2 28.8-64 64-64h192v64H160c-16 0-32 12.8-32 32zM896 480H704v-64h160c19.2 0 32-12.8 32-32v-288c0-16-12.8-32-32-32H480c-19.2 0-32 12.8-32 32V384c0 16 12.8 32 32 32h32v64h-64c-35.2 0-64-28.8-64-64v-352c0-35.2 28.8-64 64-64h448c35.2 0 64 28.8 64 64V416c0 35.2-28.8 64-64 64z"  horiz-adv-x="1024" />

    
    <glyph glyph-name="single2" unicode="&#59040;" d="M672 608H352c-9.6 0-16-3.2-22.4-9.6-6.4-6.4-9.6-12.8-9.6-22.4v-64c0-19.2 12.8-32 32-32s32 16 32 32v32h96v-320h-32c-16 0-32-12.8-32-32s12.8-32 32-32h128c16 0 32 12.8 32 32s-12.8 32-32 32h-32V544h96v-32c0-19.2 12.8-32 32-32s32 16 32 32v64c0 9.6-3.2 16-9.6 22.4-6.4 6.4-12.8 9.6-22.4 9.6zM896 768H128c-35.2 0-64-28.8-64-64v-640c0-35.2 28.8-64 64-64h768c35.2 0 64 28.8 64 64V704c0 35.2-28.8 64-64 64z m0-672c0-16-12.8-32-32-32H160c-19.2 0-32 16-32 32V672c0 16 12.8 32 32 32h704c19.2 0 32-16 32-32v-576z"  horiz-adv-x="1024" />

    
    <glyph glyph-name="dialog" unicode="&#59039;" d="M624.5 159H287c-16.875 0-28.125-11.25-28.125-28.125s14.0625-28.125 28.125-28.125h337.5c16.875 0 28.125 11.25 28.125 28.125s-14.0625 28.125-28.125 28.125zM849.5 777.75H287c-16.875 0-28.125-11.25-28.125-28.125s11.25-28.125 28.125-28.125h534.375c16.875 0 28.125-11.25 28.125-28.125v-534.375c0-16.875 11.25-28.125 28.125-28.125s28.125 11.25 28.125 28.125V721.5c0 30.9375-25.3125 56.25-56.25 56.25zM737 665.25H174.5c-30.9375 0-56.25-25.3125-56.25-56.25v-562.5c0-30.9375 25.3125-56.25 56.25-56.25h562.5c30.9375 0 56.25 25.3125 56.25 56.25V609c0 30.9375-25.3125 56.25-56.25 56.25z m0-590.625c0-14.0625-14.0625-28.125-28.125-28.125H202.625c-14.0625 0-28.125 14.0625-28.125 28.125V580.875c0 14.0625 14.0625 28.125 28.125 28.125h506.25c14.0625 0 28.125-14.0625 28.125-28.125v-506.25z"  horiz-adv-x="1024" />

    
    <glyph glyph-name="accordion" unicode="&#59041;" d="M774.4 649.6c-6.4 6.4-16 9.6-22.4 9.6-9.6 0-16-3.2-22.4-9.6l-67.2-67.2c-12.8-12.8-12.8-32 0-44.8 12.8-12.8 32-12.8 44.8 0l44.8 44.8 44.8-44.8c12.8-12.8 32-12.8 44.8 0 12.8 12.8 12.8 32 0 44.8l-67.2 67.2zM896 768H128c-35.2 0-64-28.8-64-64v-640c0-35.2 28.8-64 64-64h768c35.2 0 64 28.8 64 64V704c0 35.2-28.8 64-64 64z m0-672c0-16-12.8-32-32-32H160c-19.2 0-32 16-32 32V416h768v-320z m0 384H128V672c0 16 12.8 32 32 32h704c19.2 0 32-16 32-32v-192z"  horiz-adv-x="1024" />

    
    <glyph glyph-name="single" unicode="&#59110;" d="M118.784 168.96000000000004h778.24v430.08h-778.24v-430.08z m-40.96 471.04h860.16v-512h-860.16v512z m116.736-153.6v-204.8c0-12.288 8.192-20.48 20.48-20.48s20.48 8.192 20.48 20.48v204.8c0 12.288-8.192 20.48-20.48 20.48s-20.48-8.192-20.48-20.48z"  horiz-adv-x="1024" />

    
    <glyph glyph-name="textarea" unicode="&#59111;" d="M118.784 117.75999999999999h778.24v532.48h-778.24v-532.48z m-40.96 573.44h860.16v-614.4h-860.16v614.4z m778.24-409.6l-122.88-122.88h122.88v122.88zM194.56 537.6v-204.8c0-12.288 8.192-20.48 20.48-20.48s20.48 8.192 20.48 20.48v204.8c0 12.288-8.192 20.48-20.48 20.48s-20.48-8.192-20.48-20.48z"  horiz-adv-x="1024" />

    
    <glyph glyph-name="currency" unicode="&#59131;" d="M531.2 268.79999999999995v153.6h268.8c11.52 0 19.2 7.68 19.2 19.2s-7.68 19.2-19.2 19.2h-241.92l255.36 255.36c7.68 7.68 7.68 19.2 0 26.88-7.68 7.68-19.2 7.68-26.88 0l-270.72-270.72-3.84-3.84c0 1.92-1.92 1.92-3.84 3.84l-270.72 270.72c-7.68 7.68-19.2 7.68-26.88 0-7.68-7.68-7.68-19.2 0-26.88l255.36-255.36H224c-11.52 0-19.2-7.68-19.2-19.2s7.68-19.2 19.2-19.2h268.8v-153.6h-268.8c-11.52 0-19.2-7.68-19.2-19.2s7.68-19.2 19.2-19.2h268.8v-182.4c0-11.52 7.68-19.2 19.2-19.2s19.2 7.68 19.2 19.2V230.39999999999998h268.8c11.52 0 19.2 7.68 19.2 19.2s-7.68 19.2-19.2 19.2h-268.8z"  horiz-adv-x="1024" />

    
    <glyph glyph-name="options-test" unicode="&#58961;" d="M471.466841 688.0375750000001v-182.234462h202.413036V688.0375750000001H471.466841zM390.146745 424.415478V748.7237250000001H66.227354v-729.446427h891.545292V424.415478H390.146745zM755.140623 688.0375750000001v-182.234462H957.552635V688.0375750000001H755.140623z"  horiz-adv-x="1024" />

    
    <glyph glyph-name="tab" unicode="&#58982;" d="M830.73603508 35.929404060000024H171.7746296c-56.97004027 0-103.32486669 46.35482643-103.32486667 103.32486668V639.19459493c0 56.97004027 46.35482643 103.32486669 103.32486667 103.32486668h568.94439223v-165.53519787c0-11.53692507 6.69017378-19.57341867 12.67611876-19.57341866h180.66576118v-418.15657434c0-56.97004027-46.35482643-103.32486669-103.32486669-103.32486668zM171.7746296 703.17585446a64.04339737 64.04339737 0 0 1-63.97090322-63.98125953v-499.94032419a64.05375369 64.05375369 0 0 1 63.97090322-63.98125953h658.96140548a64.05375369 64.05375369 0 0 1 63.98125953 63.98125953V518.0672379299999H753.39514059c-28.6869681 0-52.0197259 26.41893705-52.01972592 58.90666952V703.17585446H171.7746296zM929.14165634 640.9551669699999c0-8.33682647-5.57169271-15.0891381-12.43792372-15.08913807h-97.97065639c-6.86623099 0-12.43792371 6.75231163-12.43792372 15.08913807v90.15164524c0 8.33682647 5.57169271 15.0891381 12.43792372 15.0891381h97.97065639c6.86623099 0 12.43792371-6.75231163 12.43792372-15.0891381v-90.15164524zM258.95401497 201.51638346000004V399.48753226h-70.70250224v40.30674362h189.35470206v-40.30674362h-70.54715764v-197.9711488h-48.10504218zM598.82727095 201.51638346000004H546.48649955l-20.8058191 54.13241237h-95.24694786l-19.66662542-54.13241237h-51.03587682l92.8028596 238.27789242h50.88053224l95.41264876-238.27789242z m-88.587843 94.27345509l-32.82949056 88.4221421-32.17704329-88.4221421h65.00653385zM624.50055395 439.79427588h95.23659156c18.85883355 0 32.92269733-0.78707927 42.18123506-2.36123781s17.54358267-4.84675129 24.86549111-9.82813455c7.31155216-4.98138327 13.40106018-11.61977552 18.2892367-19.91517678 4.87782021-8.28504494 7.31155216-17.58500788 7.31155215-27.8688199 0-11.16409805-3.0033288-21.39612855-9.02034266-30.71680411A55.92405333 55.92405333 0 0 0 778.90272269 328.13258272999997c14.51954125-4.21501662 25.67328301-11.43336202 33.48193784-21.61361099 7.79829855-10.18024897 11.70262597-22.1624952 11.70262599-35.92602612a70.9510536 70.9510536 0 0 0-7.5497472-31.61780274c-5.0435211-10.2320305-11.92010841-18.41351237-20.6401182-24.53408932-8.7303661-6.13093325-19.48021191-9.89027239-32.25989374-11.29873003-8.02613728-0.86992972-27.37171722-1.41881395-58.03673979-1.62594007h-81.10023364V439.79427588z m48.11539849-39.65429634v-55.09554883h31.52459599c18.75527049 0 30.40611493 0.25890765 34.95253333 0.80779187 8.23326341 0.98384909 14.70595476 3.82147698 19.41807407 8.53359629s7.07335712 10.9155467 7.07335712 18.6102822c0 7.36333369-2.029836 13.35963497-6.08950803 17.9578349-4.07002832 4.59819995-10.10775483 7.39440261-18.1235358 8.36789538-4.77425715 0.53852791-18.47565022 0.81814818-41.12489182 0.81814819h-27.63062486z m0-94.76020148v-63.70163925h44.53211654c17.33645653 0 28.33485369 0.4867464 33.00554777 1.46023915 7.14585125 1.30489458 12.97645164 4.47392427 17.47108851 9.50708907 4.50499318 5.0435211 6.74195532 11.79583273 6.74195533 20.23622226 0 7.14585125-1.72950313 13.21464667-5.19886571 18.20638625s-8.48181475 8.61644674-15.03735657 10.8948341-20.77475019 3.40722473-42.65762512 3.40722473h-38.85686075z"  horiz-adv-x="1024" />

    
    <glyph glyph-name="grid" unicode="&#59008;" d="M74.89706667 658.01386667v-587.55413334h368.40106666V658.01386667H74.89706667z m324.47146666-544.9728H118.8352V615.44106667h280.53333333v-502.4zM520.13226667 658.01386667v-107.50293334h458.00106666V658.01386667H520.13226667z m404.66773333-57.89866667H569.19893333v8.30293333h355.60106667v-8.30293333zM520.13226667 177.95413333v-107.51146666h458.00106666V177.95413333H520.13226667z m404.66773333-57.9072H569.19893333v8.31146667h355.60106667v-8.31146667zM520.13226667 417.98826667v-107.51146667h458.00106666V417.98826667H520.13226667z m404.66773333-57.9072H569.19893333v8.31146666h355.60106667v-8.31146666z"  horiz-adv-x="1024" />

    
    <glyph glyph-name="start-test" unicode="&#58891;" d="M642.56-64c-148.928 0-269.568 122.56-269.568 273.792 0 151.168 120.64 273.792 269.504 273.792 148.864 0 269.504-122.624 269.504-273.792 0-151.232-120.64-273.792-269.44-273.792z m103.168 312.96l-119.04 79.68a33.28 33.28 0 0 1-38.4 0 45.056 45.056 0 0 1-19.264-38.528v-158.976a45.056 45.056 0 0 1 19.2-38.528 33.28 33.28 0 0 1 38.528 0l119.04 79.616a48 48 0 0 1 0 76.8z m-421.76-39.168A323.648 323.648 0 0 1 474.368-64h-248.32A98.816 98.816 0 0 0 128 35.583999999999946V732.4159999999999C128 787.456 171.904 832 225.984 832h489.984c54.144 0 98.048-44.544 98.048-99.584v-250.688a313.408 313.408 0 0 1-324.672 12.096 323.52 323.52 0 0 1-165.376-284.032zM242.304 720v-56h457.344V720H242.304z m0-112v-56h285.888V608H242.304z"  horiz-adv-x="1024" />

    
    <glyph glyph-name="debug" unicode="&#60257;" d="M544 507.488V800a32 32 0 0 1-64 0v-292.512c-55.104-14.272-96-63.904-96-123.488s40.896-109.216 96-123.488v-291.616c0-18.176 14.336-32.896 32-32.896s32 14.72 32 32.928v291.616c55.104 14.272 96 63.904 96 123.488s-40.896 109.184-96 123.456zM223.136 187.74400000000003C223.328 189.18399999999997 224 190.49599999999998 224 192V800a32 32 0 0 1-64 0v-608c0-1.504 0.672-2.816 0.864-4.256A127.744 127.744 0 0 1 64 64a128 128 0 0 1 256 0 127.744 127.744 0 0 1-96.864 123.744zM192 0a64 64 0 1 0 0.032 128.032A64 64 0 0 0 192 0zM960 704a128 128 0 0 1-256 0 127.744 127.744 0 0 1 96.864-123.744c-0.192-1.44-0.864-2.752-0.864-4.256v-608a32 32 0 0 1 64 0V576c0 1.504-0.672 2.816-0.864 4.256A127.744 127.744 0 0 1 960 704z m-128-64a64 64 0 1 0 0.032 128.032A64 64 0 0 0 832 640z"  horiz-adv-x="1024" />

    
    <glyph glyph-name="scene-manage" unicode="&#60258;" d="M592 560h-416c-52.928 0-96-43.072-96-96v-416c0-52.928 43.072-96 96-96h416c52.928 0 96 43.072 96 96v416c0 52.928-43.072 96-96 96z m32-512a32 32 0 0 0-32-32h-416c-17.632 0-32 14.336-32 32v416c0 17.632 14.368 32 32 32h416c17.664 0 32-14.368 32-32v-416zM720 688h-416a32 32 0 0 1 0-64h416c17.664 0 32-14.368 32-32v-416a32 32 0 1 1 64 0v416c0 52.928-43.072 96-96 96zM528 144h-288a32 32 0 1 1 0-64h288a32 32 0 1 1 0 64zM848 816h-416a32 32 0 0 1 0-64h416c17.664 0 32-14.368 32-32v-416a32 32 0 1 1 64 0v416c0 52.928-43.072 96-96 96z"  horiz-adv-x="1024" />

    
    <glyph glyph-name="official-version" unicode="&#60259;" d="M782.208 365.28L724.288 448l57.92 82.72a32 32 0 0 1-20.672 49.856l-99.456 17.536-17.536 99.456a32 32 0 0 1-49.856 20.672L512 660.288l-82.72 57.92a32 32 0 0 1-49.856-20.672l-17.536-99.456-99.456-17.504a32 32 0 0 1-20.672-49.856L299.712 448l-57.92-82.72a32 32 0 0 1 20.672-49.856l99.456-17.536 17.536-99.456a32 32 0 0 1 49.856-20.672L512 235.712l82.72-57.92a32 32 0 0 1 49.856 20.672l17.536 99.456 99.456 17.536a31.968 31.968 0 0 1 20.64 49.824z m-123.2 64.352l41.952-59.904-72.032-12.704a32 32 0 0 1-25.952-25.952l-12.704-72.032-59.904 41.952a32 32 0 0 1-36.704 0l-59.904-41.952-12.704 72.032a32 32 0 0 1-25.952 25.952l-72.032 12.704 41.952 59.904a32 32 0 0 1 0 36.704l-41.952 59.904 72.032 12.704a32 32 0 0 1 25.952 25.952l12.704 72.032 59.904-41.952a32 32 0 0 1 36.704 0l59.904 41.952 12.704-72.032a32 32 0 0 1 25.952-25.952l72.032-12.704-41.952-59.904a32 32 0 0 1 0-36.704zM512 861.088c-243.008 0-440-196.992-440-440a438.72 438.72 0 0 1 133.344-315.552 32 32 0 1 1 44.608 45.888 374.752 374.752 0 0 0-113.952 269.664c0 207.648 168.352 376 376 376s376-168.352 376-376c0-99.136-38.496-192.096-106.144-261.824a32 32 0 1 1 45.92-44.576 438.56 438.56 0 0 1 124.224 306.4c0 243.008-196.992 440-440 440zM704 134.91200000000003a32 32 0 0 1-32-32v-107.104l-142.24 94.848-0.064 0.032a32 32 0 0 1-11.552 4.736c-2.048 0.416-4.096 0.032-6.144 0.032s-4.096 0.352-6.144-0.032c-4.096-0.8-8-2.4-11.552-4.736l-0.064-0.032L352-4.224000000000046V96a32 32 0 0 1-64 0v-160c0-0.992 0.48-1.856 0.576-2.848a32.256 32.256 0 0 1 3.712-12.224c0.48-0.864 0.544-1.856 1.088-2.688 0.576-0.896 1.504-1.344 2.176-2.144a31.36 31.36 0 0 1 21.472-11.488c1.024-0.096 1.92-0.608 2.976-0.608 0.992 0 1.856 0.48 2.848 0.576a32.256 32.256 0 0 1 12.256 3.712c0.864 0.48 1.856 0.544 2.688 1.088L512 25.535999999999945l174.24-116.16c14.688-9.792 34.56-5.824 44.384 8.864a31.584 31.584 0 0 1 4.768 21.664c0.096 1.056 0.608 1.952 0.608 3.04v159.968a32 32 0 0 1-32 32z"  horiz-adv-x="1024" />

    
    <glyph glyph-name="function" unicode="&#60260;" d="M418.496 250.65599999999995l-159.456 90.752a32 32 0 0 1-31.68-55.616l159.456-90.752a32 32 0 0 1 31.68 55.616zM790.208 516.192a32 32 0 0 1-31.616 55.648L508.8 429.664l-249.76 142.144a32 32 0 0 1-31.68-55.616l253.344-144.16V64a32 32 0 1 1 64 0v309.312c0 0.992-0.48 1.856-0.576 2.848l246.08 140.032zM880.288 663.52L560.192 850.88a95.648 95.648 0 0 1-96.64 0L143.68 663.52A96.64 96.64 0 0 1 96 580.096v-397.664c0-34.784 18.624-66.88 48.736-84l320-181.92a95.52 95.52 0 0 1 94.496 0l320 181.92A96.576 96.576 0 0 1 928 182.43200000000002V580.096a96.64 96.64 0 0 1-47.712 83.424zM864 182.43200000000002c0-11.584-6.208-22.304-16.256-28l-320-181.92a31.776 31.776 0 0 0-31.488 0l-320 181.92A32.192 32.192 0 0 0 160 182.43200000000002V580.096c0 11.456 6.048 22.048 15.904 27.808l319.872 187.36a31.84 31.84 0 0 0 32.192 0l320.128-187.392c9.856-5.728 15.904-16.32 15.904-27.776v-397.664zM778.656 442.048l-149.344-88.128c-20.608-12.16-37.344-38.944-37.344-59.808v-176.416c0-20.864 16.704-27.904 37.344-15.744l149.344 88.128c20.608 12.16 37.344 38.944 37.344 59.808v176.416c0 20.864-16.704 27.904-37.344 15.744z"  horiz-adv-x="1024" />

    
    <glyph glyph-name="technology" unicode="&#60261;" d="M435.2 569.6a32 32 0 0 1-44.8-6.4l-96-128a31.968 31.968 0 0 1 0-38.4l96-128a32 32 0 0 1 51.2 38.4L360 416l81.6 108.8a32 32 0 0 1-6.4 44.8zM748.8 262.4a32 32 0 0 1 44.8 6.4l96 128a31.968 31.968 0 0 1 0 38.4l-96 128a32 32 0 0 1-51.2-38.4l81.6-108.8-81.6-108.8a32 32 0 0 1 6.4-44.8zM592.768 582.944l-64-288a32 32 0 1 1 62.464-13.888l64 288a32 32 0 1 1-62.464 13.888zM864 259.616a32 32 0 0 1-32-32V160h-96a96 96 0 0 1-96-96v-96H227.04C207.712-32 192-15.423999999999978 192 4.927999999999997V763.072C192 783.424 207.712 800 227.04 800h569.888C816.288 800 832 783.424 832 763.072v-124.448a32 32 0 1 1 64 0V763.072C896 818.72 851.552 864 796.928 864H227.04C172.448 864 128 818.72 128 763.072v-758.144C128-50.72000000000003 172.448-96 227.04-96h435.008c1.568 0 2.912 0.672 4.416 0.896 8.96-1.6 18.464 0.256 25.984 6.528l192 160a32 32 0 0 1 10.144 33.888c0.544 2.272 1.408 4.416 1.408 6.848v115.456a32 32 0 0 1-32 32zM736 96h78.016L704 4.32000000000005V64a32 32 0 0 0 32 32z"  horiz-adv-x="1024" />

    
    <glyph glyph-name="password-manager" unicode="&#60262;" d="M928 352h-96v64h96a32 32 0 0 1 0 64h-128a32 32 0 0 1-32-32v-227.84A143.872 143.872 0 0 1 800-64a144 144 0 0 1 144 144 143.904 143.904 0 0 1-112 140.16V288h96a32 32 0 0 1 0 64z m-48-272a80 80 0 1 0-160 0 80 80 0 0 0 160 0zM572.608 9.248000000000047l-0.864-0.288c-198.752-14.464-419.68 2.464-466.592 26.912 11.264 30.208 82.88 74.784 222.88 90.144a32 32 0 0 1 28.512 31.808v38.048c0 10.848-5.504 20.96-14.624 26.88-51.2 33.088-96.128 87.552-123.264 149.376a32.256 32.256 0 0 1-15.04 15.808c-8.672 4.32-21.728 19.904-34.656 69.696-4.96 19.072-1.568 32.768 10.624 43.04 6.816 5.76 10.912 14.08 11.328 23.008C197.76 676.672 283.2 768 419.392 768c133.472 0 215.104-86.528 223.936-237.376 0.608-10.144 5.984-19.392 14.464-24.928 12.992-8.48 16.896-20.608 12.384-38.144-12.544-48.288-25.024-58.464-29.856-60.576a31.968 31.968 0 0 1-17.056-18.176c-24.992-67.808-72.352-129.728-126.656-165.664a32 32 0 0 1-14.336-26.688v-38.592a32 32 0 0 1 28.512-31.808c11.296-1.216 28.96-3.968 53.056-8.16 17.376-2.912 33.984 8.672 36.992 26.048s-8.672 33.984-26.048 36.992a1699.968 1699.968 0 0 1-22.112 3.712c54.08 42.016 99.136 102.816 126.464 171.04 30.112 20.96 44.096 61.472 52.992 95.776 9.888 38.08 0.192 73.408-25.984 97.472C690.56 723.968 581.76 832 419.392 832c-168 0-278.848-111.776-291.712-292.672-22.816-25.6-30.368-60.448-20.672-97.728 13.984-53.856 31.904-86.784 57.28-104.512 28.224-60.224 71.04-114.144 120.48-152.192-150.176-23.328-245.216-83.328-245.216-157.088 0-9.088 2.816-22.56 16.192-35.008 43.2-40.064 211.488-52.864 360.32-52.864 61.408 0 119.52 2.176 164.128 5.536 2.496 0.192 4.96 0.672 7.36 1.44l4.512 1.44a32 32 0 0 1 20.704 40.224 31.776 31.776 0 0 1-40.16 20.672z"  horiz-adv-x="1024" />

    
    <glyph glyph-name="apply" unicode="&#60263;" d="M607.232 0a32 32 0 1 0 0-64H192a96 96 0 0 0-96 96V736a96 96 0 0 0 96 96h544a96 96 0 0 0 96-96 32 32 0 0 0-64 0 32 32 0 0 1-32 32H192a32 32 0 0 1-32-32v-704a32 32 0 0 1 32-32h415.232zM832 310.24v-146.656c0-42.656-64-42.656-64 0v146.656c0 42.688 64 42.688 64 0zM288 576a32 32 0 1 0 0 64h224a32 32 0 0 0 0-64H288zM288 416a32 32 0 0 0 0 64h128a32 32 0 0 0 0-64H288zM639.424-30.591999999999985a32 32 0 1 0-64 0L576 96a96 96 0 0 0 96 96l127.744-1.152a32 32 0 1 0 0-64L672 128a32 32 0 0 1-32-32l-0.576-126.592zM637.92-51.648000000000025a32 32 0 1 0-44.32 46.208l180.384 172.992a32 32 0 1 0 44.288-46.176l-180.352-173.024zM880.896 561.472a31.424 31.424 0 0 1 3.328 44.416l-0.416 0.512a32 32 0 0 1-44.896 3.36L408.32 243.712l-15.2-51.84 58.336 4.544 429.44 365.056z m51.616 86.4a95.36 95.36 0 0 0-9.408-134.496l-438.08-372.448a32 32 0 0 0-18.24-7.52l-114.944-8.896a32 32 0 0 0-33.184 40.928l30.944 105.472a32 32 0 0 0 9.984 15.36L797.408 658.496a96 96 0 0 0 134.688-10.112l0.416-0.512z"  horiz-adv-x="1024" />

    
    <glyph glyph-name="node-manage" unicode="&#60264;" d="M512 384m-192 0a192 192 0 1 1 384 0 192 192 0 1 1-384 0ZM960 384c0 53.6-9.408 105.92-27.616 155.2a32 32 0 0 1-60.032-22.144c15.584-42.24 23.648-87.072 23.648-133.056 0-22.048-2.272-43.552-5.856-64.576A63.808 63.808 0 0 1 832 256c0-18.88 8.32-35.68 21.344-47.392C789.6 84.832 660.832 0 512 0 299.936 0 128 171.93600000000004 128 384c0 22.048 2.272 43.552 5.856 64.576A63.808 63.808 0 0 1 192 512c0 18.88-8.32 35.68-21.344 47.392C234.4 683.168 363.168 768 512 768c33.312 0 65.824-4.736 97.312-12.96A64.064 64.064 0 0 1 736 768a64 64 0 0 1-64 64c-16.256 0-30.944-6.272-42.24-16.256A448.864 448.864 0 0 1 512 832C331.712 832 176.736 725.28 105.664 571.7760000000001A63.872 63.872 0 0 1 64 512c0-12.576 3.744-24.224 10.016-34.112A449.344 449.344 0 0 1 64 384c0-247.424 200.576-448 448-448 180.288 0 335.264 106.72 406.336 260.224A63.872 63.872 0 0 1 960 256c0 12.576-3.744 24.224-10.016 34.112 6.464 30.304 10.016 61.664 10.016 93.888z"  horiz-adv-x="1024" />

    
    <glyph glyph-name="permission" unicode="&#60265;" d="M509.088 307.00800000000004v23.872c35.936 22.816 70.656 62.88 89.536 112.064 13.408 5.696 23.04 21.824 30.816 50.56 6.016 22.304-3.648 36.992-16.672 45.12C606.368 643.616 543.808 704 448 704c-97.184 0-162.688-62.144-167.744-169.92-11.808-9.568-19.392-24.864-13.472-46.688 8.416-31.136 18.752-48.992 33.056-55.84 20.224-44.192 53.248-80.032 87.072-101.024v-23.52C292.896 297.08799999999997 224 264.86400000000003 224 226.62400000000002c0-46.144 448-46.144 448 0 0 38.24-68.896 70.464-162.912 80.384zM864 128V736a96 96 0 0 1-96 96H160a96 96 0 0 1-96-96v-608a96 96 0 0 1 96-96h608a96 96 0 0 1 96 96zM128 128V736a32 32 0 0 0 32 32h608a32 32 0 0 0 32-32v-608a32 32 0 0 0-32-32H160a32 32 0 0 0-32 32zM944.896 730.144a32 32 0 0 1-32-32v-679.104c0-19.84-16.064-35.904-35.904-35.904h-611.2a32 32 0 0 1 0-64h611.2a99.904 99.904 0 0 1 99.904 99.904V698.144a32 32 0 0 1-32 32z"  horiz-adv-x="1024" />

    
    <glyph glyph-name="authorization" unicode="&#60266;" d="M864 320h-250.144A204.288 204.288 0 0 0 608 365.98400000000004c0 77.088 43.2 146.56 110.752 181.632a31.104 31.104 0 0 1 11.584 11.072C771.52 579.9359999999999 800 622.432 800 672a128 128 0 0 1-128 128H352a128 128 0 0 1-128-128c0-49.568 28.48-92.064 69.664-113.312a31.104 31.104 0 0 1 11.584-11.072A204.544 204.544 0 0 0 416 365.98400000000004c0-15.712-2.4-30.976-5.888-45.984H160a96 96 0 0 1-96-96v-64a96 96 0 0 1 96-96c0-54.272 49.088-96 107.296-96h489.408C814.912-32 864 9.727999999999952 864 64a96 96 0 0 1 96 96v64a96 96 0 0 1-96 96z m-452.384 224h37.024a32 32 0 0 1 0 64H352a64 64 0 0 0 0 128h320a64 64 0 0 0 0-128h-102.112a32 32 0 0 1 0-64h42.496a267.04 267.04 0 0 1-64.416-224h-71.936a267.04 267.04 0 0 1-64.416 224zM896 160a32 32 0 0 0-32-32h-55.712a32 32 0 0 1-32-32c0-14.72 10.144-26.592 23.712-30.336V64c0-16.416-18.336-32-43.296-32H267.296C242.336 32 224 47.583999999999946 224 64h456.128a32 32 0 0 1 0 64H160a32 32 0 0 0-32 32v64a32 32 0 0 0 32 32h704a32 32 0 0 0 32-32v-64z"  horiz-adv-x="1024" />

    
    <glyph glyph-name="approval" unicode="&#60267;" d="M575.232 0H160a32 32 0 0 0-32 32V736a32 32 0 0 0 32 32h544c17.664 0 32-14.336 32-32a32 32 0 0 1 64 0 96 96 0 0 1-96 96H160a96 96 0 0 1-96-96v-704a96 96 0 0 1 96-96h415.232a32 32 0 0 1 0 64zM512 608a32 32 0 0 1-32 32H224a32 32 0 0 1 0-64h256a32 32 0 0 1 32 32zM480 416a32 32 0 0 1-32 32H224a32 32 0 0 1 0-64h224a32 32 0 0 1 32 32zM224 224a32 32 0 0 1 0-64h128a32 32 0 0 1 0 64H224zM864 272h-66.176C822.08 339.712 864 464.352 864 480a160 160 0 0 1-320 0c0-20.064 39.84-139.744 65.696-208H544a96 96 0 0 1-96-96v-32a96 96 0 0 1 96-96h320a96 96 0 0 1 96 96v32a96 96 0 0 1-96 96z m-221.536 98.464C623.104 426.24 608 475.392 608 480a96 96 0 1 0 192 0c0-6.304-52.192-158.464-70.336-208h-51.2c-8 20.16-22.4 59.264-36 98.464zM896 144a32 32 0 0 0-32-32H544a32 32 0 0 0-32 32v32a32 32 0 0 0 32 32h320a32 32 0 0 0 32-32v-32z"  horiz-adv-x="1024" />

    
    <glyph glyph-name="board" unicode="&#60268;" d="M979.2 737.152a32 32 0 0 1-38.4 23.936l-166.848-38.656a32 32 0 0 1-15.808-53.408L794.56 631.36l-194.56-173.568-101.024 95.68a32 32 0 0 1-45.152-1.152l-216.736-227.264A64 64 0 1 1 288 262.4c0 6.944-1.376 13.472-3.424 19.712l193.536 202.944 99.232-93.952a32 32 0 0 1 43.296-0.64L839.04 585.28l41.504-42.976a32 32 0 0 1 53.92 13.92l44.448 165.408a31.84 31.84 0 0 1 0.288 15.52zM928 445.536a32 32 0 0 1-32-32V160a32 32 0 0 0-32-32H160a32 32 0 0 0-32 32V736a32 32 0 0 0 32 32h530.656a32 32 0 0 1 0 64H160a96 96 0 0 1-96-96v-576a96 96 0 0 1 96-96h704a96 96 0 0 1 96 96v253.536a32 32 0 0 1-32 32zM912 0h-800a32 32 0 0 1 0-64h800a32 32 0 0 1 0 64z"  horiz-adv-x="1024" />

    
    <glyph glyph-name="instrument" unicode="&#60270;" d="M959.36 371.20000000000005c0.128 4.288 0.64 8.48 0.64 12.8 0 53.6-9.408 105.92-27.616 155.2a32 32 0 0 1-60.032-22.144c13.76-37.28 21.28-76.64 22.944-117.024H832a32 32 0 0 1 0-64h60.672c-22.336-178.944-167.552-319.424-348.672-334.4V64a32 32 0 0 1-64 0v-62.368C298.88 16.607999999999947 153.664 157.08799999999997 131.328 336H192a32 32 0 0 1 0 64H128.8C136.832 593.9200000000001 288.224 750.528 480 766.3679999999999V704a32 32 0 0 1 64 0V766.336c42.912-3.552 84.48-13.856 123.36-31.072a31.968 31.968 0 1 1 25.92 58.496A445.824 445.824 0 0 1 512 832C264.576 832 64 631.424 64 384c0-4.32 0.512-8.512 0.64-12.8-0.096-1.12-0.64-2.08-0.64-3.2 0-1.888 0.768-3.552 1.088-5.344C76.288 125.21600000000001 271.776-64 512-64s435.712 189.216 446.912 426.656c0.32 1.792 1.088 3.456 1.088 5.344 0 1.12-0.544 2.08-0.64 3.2zM851.392 733.408L475.936 572.48A191.936 191.936 0 0 1 512 192a191.936 191.936 0 0 1 179.296 123.744L892.16 688.832c0.288 0.544 0.256 1.152 0.512 1.696 0.96 2.016 1.408 4.16 1.92 6.336 0.448 1.92 0.992 3.776 1.088 5.728 0.096 1.952-0.288 3.808-0.576 5.76-0.32 2.24-0.576 4.384-1.344 6.496-0.192 0.576-0.128 1.184-0.352 1.76-0.544 1.312-1.6 2.176-2.304 3.36a29.664 29.664 0 0 1-3.744 5.408 28.864 28.864 0 0 1-5.056 4.192c-1.12 0.8-1.888 1.92-3.136 2.592-0.544 0.288-1.152 0.256-1.696 0.512-2.016 0.96-4.16 1.408-6.336 1.92-1.92 0.448-3.776 0.992-5.728 1.088-1.952 0.096-3.808-0.288-5.76-0.576-2.24-0.32-4.384-0.576-6.496-1.344-0.576-0.192-1.184-0.096-1.76-0.352z m-253.056-178.08l194.048 83.168-100.768-187.136a192.32 192.32 0 0 1-93.28 103.968z"  horiz-adv-x="1024" />

    
    <glyph glyph-name="operations" unicode="&#60272;" d="M662.624 224.22400000000005a31.968 31.968 0 1 1-45.248-45.248l112-112a31.968 31.968 0 1 1 45.248 45.248l-112 112zM712.896 324.384a247.36 247.36 0 0 1-334.112 269.568 31.968 31.968 0 0 1-11.008-52.448l97.824-97.824a31.968 31.968 0 0 0 0-45.248l-31.328-31.328a31.968 31.968 0 0 0-45.248 0L290.88 465.248a32 32 0 0 1-52.384-10.848 247.36 247.36 0 0 1 268-335.456l145.824-145.824a145.6 145.6 0 1 1 205.92 205.92l-145.344 145.344z m100.096-306.016a81.6 81.6 0 0 0-115.392 0l-170.336 170.336-17.28-4a183.36 183.36 0 0 0-224.032 194.944l57.824-57.824a96 96 0 0 1 135.776 0l31.328 31.328a96 96 0 0 1 0 135.776l-57.248 57.248a183.36 183.36 0 0 0 193.472-225.024l-4.096-17.376 170.016-170.016c31.808-31.872 31.808-83.52-0.032-115.392zM944.672 472.672l-363.2 363.2a96.096 96.096 0 0 1-135.776 0l-363.2-363.2a96.032 96.032 0 0 1 15.104-148.064V0c0-52.928 43.072-96 96-96h320a32 32 0 1 1 0 64h-320c-17.632 0-32 14.336-32 32V344.256c0 13.664-8.672 25.824-21.6 30.272a32 32 0 0 0-12.256 52.896l363.2 363.2a32.064 32.064 0 0 0 45.28 0l363.2-363.232c6.048-6.016 9.376-14.048 9.376-22.624a31.808 31.808 0 0 0-21.6-30.24 32.032 32.032 0 0 1-21.632-30.272v-76.544a32 32 0 1 1 64 0v56.864a95.456 95.456 0 0 1 43.232 80.192c0 25.664-9.984 49.792-28.128 67.904z"  horiz-adv-x="1024" />

    
    <glyph glyph-name="custom" unicode="&#60273;" d="M727.008 408.768l194.016 184.32a99.2 99.2 0 0 1 0 140.288l-48.416 48.416a99.2 99.2 0 0 1-138.464 1.76L544.64 603.616l-184.064 196.64-1.504 1.568a64.832 64.832 0 0 1-91.712 0.384L129.184 664.032a64.8 64.8 0 0 1-1.12-90.144l181.344-193.728-171.456-162.88a99.264 99.264 0 0 1-28.256-49.28l-28.992-123.744a65.632 65.632 0 0 1 82.4-77.92l119.296 35.136a99.744 99.744 0 0 1 40.32 23.232l169.056 160.608 203.616-217.536 1.504-1.568a64.832 64.832 0 0 1 91.712-0.384l138.176 138.176a64.8 64.8 0 0 1 1.12 90.144l-200.896 214.624zM319.424 109.82399999999996l-90.112 90.112a31.488 31.488 0 0 1-9.792 6.496L667.104 631.648l94.272-94.272c1.408-1.408 3.168-2.08 4.768-3.168L319.424 109.82399999999996zM778.208 737.216a35.2 35.2 0 0 0 49.12-0.64l48.416-48.416c13.76-13.76 13.76-36.032-0.64-50.4l-64.448-61.216c-1.28 2.08-2.24 4.288-4.064 6.112l-93.12 93.12 64.736 61.44zM288.512 496.096c8 0.128 16 3.168 22.112 9.28l48 48a31.968 31.968 0 1 1-45.248 45.248l-48-48a31.68 31.68 0 0 1-8.928-20.256L174.816 617.6c-0.512 0.512-0.512 1.024-0.352 1.152L312.64 756.96c0.128 0.128 0.672 0.128 1.248-0.416l184.384-196.992-142.432-135.328-67.328 71.872zM145.024 27.71199999999999a1.6 1.6 0 0 0-2.016 1.92l28.992 123.744c0.992 4.16 2.944 7.968 5.312 11.488a31.808 31.808 0 0 1 6.752-10.144l88.288-88.288a35.072 35.072 0 0 0-8-3.552l-119.328-35.168z m598.336-16.672c-0.128-0.128-0.672-0.128-1.248 0.416l-125.6 134.176a31.232 31.232 0 0 1 14.08 7.712l48 48a31.968 31.968 0 1 1-45.248 45.248l-48-48a31.68 31.68 0 0 1-7.296-11.904l-39.904 42.656 142.432 135.328 200.576-214.304c0.48-0.512 0.48-1.024 0.352-1.152l-138.144-138.176z"  horiz-adv-x="1024" />

    
    <glyph glyph-name="milepost" unicode="&#58908;" d="M722.9375 685.33928595C638.5625 685.33928595 572.26785702 703.41964297 518.02678595 745.60714297 463.78571405 781.76785703 409.54464298 805.875 325.16964297 805.875 246.82142893 805.875 186.55357107 781.76785703 150.39285703 757.66071405v-765.40178512c0-18.08035703 12.05357108-30.13392892 30.13392892-30.13392893s30.13392892 12.05357108 30.1339281 30.13392893V305.65178595c36.16071405 12.05357108 72.32142893 18.08035703 114.50892893 18.08035703 108.48214298 0 174.77678595-36.16071405 229.01785702-72.32142893 48.21428595-36.16071405 102.45535702-48.21428595 168.75-48.21428513 60.26785702 0 114.50892893 12.05357108 150.66964297 36.16071405V715.47321405c-42.1875-18.08035703-96.42857107-30.13392892-150.66964297-30.1339281zM813.33928595 275.51785701999995c-24.10714297-6.02678595-54.24107108-12.05357108-90.40178595-12.05357107-54.24107108 0-96.42857107 12.05357108-132.58928595 36.16071405C530.08035703 341.8125 451.73214298 384 325.16964297 384c-36.16071405 0-78.34821405-6.02678595-114.50892892-18.08035703V721.5c24.10714297 12.05357108 66.29464298 24.10714297 114.50892892 24.10714297 66.29464298 0 108.48214298-18.08035703 156.6964281-48.21428595 72.32142893-48.21428595 144.64285703-72.32142893 241.07142893-72.3214281 30.13392892 0 60.26785702 0 90.40178595 6.02678513v-355.58035703z"  horiz-adv-x="1024" />

    
    <glyph glyph-name="query" unicode="&#60297;" d="M480 112a48 48 0 1 0 96 0 48 48 0 0 0-96 0z m74.432 158.144a32 32 0 1 0-64 0v62.816a32 32 0 0 0 32 32c64.96 0 117.568 60.576 117.568 125.472a117.568 117.568 0 0 1-235.104 0 32 32 0 1 0-64 0 181.568 181.568 0 0 0 363.104 0c0-89.344-64.544-171.52-149.568-186.656v-33.6zM512-96C246.912-96 32 118.91200000000003 32 384 32 649.088 246.912 864 512 864c265.088 0 480-214.912 480-480 0-265.088-214.912-480-480-480z m0 64c229.76 0 416 186.24 416 416S741.76 800 512 800 96 613.76 96 384s186.24-416 416-416z"  horiz-adv-x="1024" />

    
    <glyph glyph-name="append" unicode="&#60298;" d="M512-96C246.912-96 32 118.91200000000003 32 384 32 649.088 246.912 864 512 864c265.088 0 480-214.912 480-480 0-265.088-214.912-480-480-480z m0 64c229.76 0 416 186.24 416 416S741.76 800 512 800 96 613.76 96 384s186.24-416 416-416zM256 352a32 32 0 0 0 0 64h512a32 32 0 0 0 0-64H256zM480 640a32 32 0 0 0 64 0v-512a32 32 0 0 0-64 0V640z"  horiz-adv-x="1024" />

    
    <glyph glyph-name="set" unicode="&#60301;" d="M482.88 784l-17.28-90.688-20.64-4.512a309.696 309.696 0 0 1-99.776-41.088l-18.688-11.84-73.28 55.04-44.64-44.64 51.904-76.416-11.392-17.76a310.016 310.016 0 0 1-41.568-99.584l-4.8-21.6-90.72-12.896v-63.104l90.688-17.312 4.512-20.64a309.984 309.984 0 0 1 41.088-99.776l11.84-18.688-55.04-73.28 44.64-44.64 76.416 51.904 17.76-11.392a310.016 310.016 0 0 1 99.584-41.568l21.6-4.8 12.896-90.72h63.104l17.312 90.688 20.64 4.512a309.984 309.984 0 0 1 99.776 41.088l18.688 11.84 73.28-55.04 44.64 44.64-51.904 76.416 11.392 17.76a310.016 310.016 0 0 1 41.568 99.584l4.8 21.6 90.72 12.896V413.12l-90.688 17.312-4.512 20.64a309.984 309.984 0 0 1-41.088 99.776l-11.84 18.688 55.04 73.28-44.64 44.64-76.416-51.904-17.76 11.392a310.144 310.144 0 0 1-99.584 41.568l-21.6 4.8-12.896 90.72H482.88zM410.56 746.144l19.424 101.856h171.584l14.624-102.624c28-8.064 54.848-19.328 80.128-33.568l85.792 58.304 121.344-121.344-62.272-82.88c14.08-25.408 25.152-52.352 32.96-80.416l101.888-19.424v-171.584l-102.624-14.624a373.92 373.92 0 0 0-33.568-80.128l58.304-85.792-121.344-121.344-82.88 62.272c-25.408-14.08-52.352-25.152-80.416-32.96l-19.424-101.888h-171.584l-14.624 102.624a373.92 373.92 0 0 0-80.128 33.568L241.92-2.1119999999999663l-121.344 121.344 62.272 82.88a373.824 373.824 0 0 0-32.96 80.416L48 301.952v171.584l102.624 14.624c8.064 27.968 19.328 54.848 33.568 80.128L125.888 654.08l121.344 121.344 82.88-62.272a373.856 373.856 0 0 0 80.416 32.96zM512 192a192 192 0 1 0 0 384 192 192 0 0 0 0-384z m0 64a128 128 0 1 1 0 256 128 128 0 0 1 0-256z"  horiz-adv-x="1024" />

    
    <glyph glyph-name="apply-management" unicode="&#60303;" d="M192 736a32 32 0 0 1-32-32v-192a32 32 0 0 1 32-32h192a32 32 0 0 1 32 32V704a32 32 0 0 1-32 32H192z m0 64h192a96 96 0 0 0 96-96v-192a96 96 0 0 0-96-96H192a96 96 0 0 0-96 96V704a96 96 0 0 0 96 96zM192 288a32 32 0 0 1-32-32v-192a32 32 0 0 1 32-32h192a32 32 0 0 1 32 32v192a32 32 0 0 1-32 32H192z m0 64h192a96 96 0 0 0 96-96v-192a96 96 0 0 0-96-96H192a96 96 0 0 0-96 96v192a96 96 0 0 0 96 96zM640 288a32 32 0 0 1-32-32v-192a32 32 0 0 1 32-32h192a32 32 0 0 1 32 32v192a32 32 0 0 1-32 32h-192z m0 64h192a96 96 0 0 0 96-96v-192a96 96 0 0 0-96-96h-192a96 96 0 0 0-96 96v192a96 96 0 0 0 96 96zM602.272 629.7280000000001a32 32 0 0 1 0-45.28l112-112a32 32 0 0 1 45.28 0l112 112a32 32 0 0 1 0 45.28l-112 112a32 32 0 0 1-45.28 0l-112-112z m-45.248 45.248l112 112a96 96 0 0 0 135.776 0l112-112a96 96 0 0 0 0-135.776l-112-112a96 96 0 0 0-135.776 0l-112 112a96 96 0 0 0 0 135.776z"  horiz-adv-x="1024" />

    
    <glyph glyph-name="document" unicode="&#60305;" d="M288 576a32 32 0 1 0 0 64h448a32 32 0 0 0 0-64H288zM288 352a32 32 0 0 0 0 64h448a32 32 0 0 0 0-64H288zM288 128a32 32 0 0 0 0 64h128a32 32 0 0 0 0-64H288zM807.968 93.75999999999999a32 32 0 0 0 41.984-48.32l-153.856-133.6a32 32 0 0 0-20.992-7.84H195.04C140.16-96 96-50.624000000000024 96 4.927999999999997V763.072C96 818.624 140.16 864 195.04 864h633.92C883.84 864 928 818.624 928 763.072v-564.32a32 32 0 1 0-64 0V763.072C864 783.6800000000001 848.096 800 828.96 800H195.04C175.904 800 160 783.6800000000001 160 763.072v-758.144C160-15.67999999999995 175.904-32 195.04-32h468.096l144.832 125.76zM704-63.13599999999997a32 32 0 1 0-64 0v186.24C640 178.59199999999998 684.16 224 739.04 224h157.632a32 32 0 0 0 0-64h-157.632c-19.136 0-35.04-16.32-35.04-36.928v-186.24z"  horiz-adv-x="1024" />

    
    <glyph glyph-name="form" unicode="&#60308;" d="M96 736v-704h832V736H96z m309.344-400.192v160h192v-160h-192z m192-64V96h-192v175.808h192zM160 495.808h181.344v-160H160v160z m501.344 0H864v-160h-202.656v160zM864 672v-112.192H160V672h704zM160 271.808h181.344V96H160v175.808zM661.344 96v175.808H864V96h-202.656z"  horiz-adv-x="1024" />

    
    <glyph glyph-name="module" unicode="&#60309;" d="M960 768H64a32 32 0 0 1-32-32v-416a32 32 0 0 1 32-32h896a32 32 0 0 1 32 32V736a32 32 0 0 1-32 32z m-32-416H96V704h832v-352zM896 248.736a32 32 0 0 1-32-32V64H160v152.736a32 32 0 1 1-64 0V32a32 32 0 0 1 32-32h768a32 32 0 0 1 32 32v184.736a32 32 0 0 1-32 32zM685.92 425.632a31.904 31.904 0 0 1 45.728 0l123.232 126.016a31.968 31.968 0 1 1-45.76 44.736l-100.352-102.624-100.384 102.624a32 32 0 0 1-45.76-44.736l123.296-126.016z"  horiz-adv-x="1024" />

    
    <glyph glyph-name="line-chart" unicode="&#60310;" d="M896 0H96a32 32 0 0 0-32 32V672a32 32 0 0 0 64 0v-608h768a32 32 0 1 0 0-64zM247.008 256a32 32 0 0 0-20.992 56.192l200.992 174.24a32 32 0 0 0 42.272-0.288l172.128-153.44 229.088 246.304a32 32 0 0 0 46.88-43.616l-250.432-269.216a31.936 31.936 0 0 0-44.704-2.08l-174.56 155.52-179.744-155.84a31.872 31.872 0 0 0-20.928-7.776z"  horiz-adv-x="1024" />

    
    <glyph glyph-name="bar-chart" unicode="&#60311;" d="M896 0H96a32 32 0 0 0-32 32V672a32 32 0 0 0 64 0v-608h768a32 32 0 1 0 0-64zM512 143.84000000000003a32 32 0 0 0-32 32V545.376a32 32 0 0 0 64 0v-369.536a32 32 0 0 0-32-32zM320 143.42399999999998a32 32 0 0 0-32 32V384a32 32 0 0 0 64 0v-208.576a32 32 0 0 0-32-32zM896 143.32799999999997a32 32 0 0 0-32 32V732.512a32 32 0 1 0 64 0v-557.184a32 32 0 0 0-32-32zM704 143.264a32 32 0 0 0-32 32V672a32 32 0 1 0 64 0v-496.736a32 32 0 0 0-32-32z"  horiz-adv-x="1024" />

    
    <glyph glyph-name="picture" unicode="&#60312;" d="M928 0H96a32 32 0 0 0-32 32V736a32 32 0 0 0 32 32h832a32 32 0 0 0 32-32v-116.864a32 32 0 1 0-64 0V704H128v-640h768V427.456l-206.336-244.736a31.968 31.968 0 0 0-44.896-4l-196.064 162.752-194.656-180.224a31.936 31.936 0 1 0-43.456 46.944l215.232 199.296a32.032 32.032 0 0 0 42.176 1.152l193.216-160.384 242.336 287.456a32.128 32.128 0 0 0 35.424 9.44c12.608-4.608 21.024-16.64 21.024-30.08V32a32 32 0 0 0-32-32zM304 416C242.24 416 192 466.24 192 528S242.24 640 304 640 416 589.76 416 528 365.76 416 304 416z m0 160c-26.464 0-48-21.536-48-48S277.536 480 304 480s48 21.536 48 48-21.536 48-48 48z"  horiz-adv-x="1024" />

    
    <glyph glyph-name="trace" unicode="&#58883;" d="M512.001824 480.573871c53.231847 0 96.538598-43.30675 96.538598-96.538598s-43.30675-96.538598-96.538598-96.538598-96.538598 43.30675-96.538597 96.538598 43.30675 96.538598 96.538597 96.538598m0 44.821057c-78.071349 0-141.359655-63.289522-141.359655-141.359655s63.289522-141.359655 141.359655-141.359655 141.359655 63.289522 141.359656 141.359655-63.288306 141.359655-141.359656 141.359655zM512.001824 752.950889c49.823744 0 98.131965-9.747516 143.585505-28.972526 43.924636-18.579149 83.382979-45.184734 117.277915-79.080887 33.894936-33.894936 60.501738-73.353279 79.080887-117.277915 19.22501-45.452323 28.972526-93.76176 28.972526-143.585504s-9.747516-98.131965-28.972526-143.585504c-18.579149-43.924636-45.184734-83.382979-79.080887-117.277916-33.894936-33.894936-73.353279-60.501738-117.277915-79.080887-45.452323-19.22501-93.76176-28.972526-143.585505-28.972526s-98.131965 9.747516-143.585504 28.972526c-43.924636 18.579149-83.382979 45.184734-117.277915 79.080887-33.894936 33.894936-60.501738 73.353279-79.080887 117.277916-19.22501 45.452323-28.972526 93.76176-28.972526 143.585504s9.747516 98.131965 28.972526 143.585504c18.579149 43.924636 45.184734 83.382979 79.080887 117.277915s73.353279 60.501738 117.277915 79.080887c45.453539 19.22501 93.76176 28.972526 143.585504 28.972526m0 44.821057c-228.501035 0-413.736673-185.236855-413.736673-413.736673s185.236855-413.736673 413.736673-413.736673S925.738498 155.53423799999996 925.738498 384.035273 740.502859 797.771946 512.001824 797.771946zM512.001824 713.03643c7.53383 0 15.001979-0.277319 22.410529-0.77479V842.659901h-44.821057v-130.398261c7.407333 0.497471 14.875483 0.77479 22.410528 0.77479zM534.412353 652.229398a299.998223 299.998223 0 0 1-44.821057 0v-245.784813H243.806483a299.998223 299.998223 0 0 1 0-44.821057h245.784813v-233.621704a299.998223 299.998223 0 0 1 44.821057 0V361.62474399999996h245.783597a299.998223 299.998223 0 0 1 0 44.821058H534.412353V652.229398zM840.226975 406.445802c0.498687-7.407333 0.77479-14.876699 0.77479-22.410529s-0.277319-15.001979-0.77479-22.410529H970.625236v44.821058H840.226975zM183.000668 384.035273c0 7.53383 0.277319 15.001979 0.776006 22.410529H53.377197v-44.821058H183.776674c-0.498687 7.407333-0.776006 14.876699-0.776006 22.410529zM512.001824 55.03411600000004c-7.53383 0-15.001979 0.277319-22.410528 0.77479v-130.398261h44.821057V55.80890599999998c-7.40855-0.497471-14.876699-0.77479-22.410529-0.77479z"  horiz-adv-x="1024" />

    
    <glyph glyph-name="en" unicode="&#60384;" d="M229.248 192V558.496h271.744v-61.984h-197.76v-81.28h184v-61.76h-184v-99.712h204.768V192h-278.72z m550.496 0h-70.24v135.488c0 28.672-1.504 47.232-4.48 55.648a39.04 39.04 0 0 1-14.656 19.616 41.792 41.792 0 0 1-24.384 7.008c-12.16 0-23.04-3.328-32.736-10.016-9.664-6.656-16.32-15.488-19.872-26.496-3.584-11.008-5.376-31.36-5.376-60.992V192h-70.24v265.504h65.248v-39.008c23.168 30.016 52.32 44.992 87.488 44.992 15.52 0 29.664-2.784 42.496-8.352 12.832-5.6 22.56-12.704 29.12-21.376 6.592-8.672 11.2-18.496 13.76-29.504 2.56-11.008 3.872-26.752 3.872-47.264V192zM160 752a32 32 0 0 1-32-32V32a32 32 0 0 1 32-32h688a32 32 0 0 1 32 32V720a32 32 0 0 1-32 32H160z m0 64h688a96 96 0 0 0 96-96V32a96 96 0 0 0-96-96H160a96 96 0 0 0-96 96V720a96 96 0 0 0 96 96z"  horiz-adv-x="1024" />

    
    <glyph glyph-name="cn" unicode="&#60386;" d="M160 752a32 32 0 0 1-32-32V32a32 32 0 0 1 32-32h688a32 32 0 0 1 32 32V720a32 32 0 0 1-32 32H160z m0 64h688a96 96 0 0 0 96-96V32a96 96 0 0 0-96-96H160a96 96 0 0 0-96 96V720a96 96 0 0 0 96 96zM482.176 633.7280000000001h59.616v-94.4h196v-239.072h-196v-184.416h-59.616v184.416H286.72v239.04h195.456V633.76z m-137.504-277.152h137.504v126.4H344.64v-126.4z m197.12 0h138.048v126.4H541.76v-126.4z"  horiz-adv-x="1024" />

    
    <glyph glyph-name="danger" unicode="&#60413;" d="M987.008 49.18399999999997l-448 704a32.032 32.032 0 0 1-54.016 0l-448-704A32 32 0 0 1 64 0h896a32 32 0 0 1 27.008 49.184zM122.304 64L512 676.384 901.696 64H122.304zM495.808 567.104l-268.8-422.4a19.2 19.2 0 0 1 16.192-29.504h537.6a19.2 19.2 0 0 1 16.192 29.504l-268.8 422.4a19.2 19.2 0 0 1-32.384 0zM544 160h-64v64h64v-64z m0 288v-192h-64v192h64z"  horiz-adv-x="1024" />

    
    <glyph glyph-name="time" unicode="&#59038;" d="M896 384a384 384 0 1 1-384-384 384 384 0 0 1 384 384z m64 0A448 448 0 1 0 512 832a448 448 0 0 0 448-448zM544 397.12l118.72-118.4a32 32 0 0 0-45.44-45.44l-128 128A32 32 0 0 0 480 384V672a32 32 0 0 0 64 0z"  horiz-adv-x="1024" />

    
    <glyph glyph-name="save" unicode="&#60425;" d="M925.248 539.072l-258.176 258.176a64 64 0 0 1-45.248 18.752H144a64 64 0 0 1-64-64v-736a64 64 0 0 1 64-64h736a64 64 0 0 1 64 64V493.824a64 64 0 0 1-18.752 45.248zM288 752h192V640H288V752z m448-736H288V160h448v-144z m144 0H800V192a32 32 0 0 1-32 32H256a32 32 0 0 1-32-32v-176H144v736H224V608a32 32 0 0 1 32-32h256a32 32 0 0 1 32 32V752h77.824l258.176-258.176V16z"  horiz-adv-x="1024" />

    
    <glyph glyph-name="hide" unicode="&#60427;" d="M493.504 337.856a31.904 31.904 0 0 1 45.28 0l308.352 308.352a31.968 31.968 0 1 1-45.248 45.248l-285.728-285.728-294.176 294.144a31.968 31.968 0 1 1-45.248-45.248l316.768-316.768zM801.888 435.424l-285.728-285.728-294.144 294.144a31.968 31.968 0 1 1-45.248-45.248l316.768-316.768a31.904 31.904 0 0 1 45.28 0l308.352 308.352a32 32 0 1 1-45.28 45.248z"  horiz-adv-x="1024" />

    
    <glyph glyph-name="expand" unicode="&#60428;" d="M199.36 323.23199999999997a31.904 31.904 0 0 1 22.624 9.376l294.144 294.144 285.728-285.728a31.968 31.968 0 1 1 45.248 45.248l-308.352 308.352a32 32 0 0 1-45.28 0l-316.768-316.768a31.968 31.968 0 0 1 22.656-54.624zM538.784 438.624a32 32 0 0 1-45.28 0l-316.768-316.768a31.968 31.968 0 1 1 45.248-45.248l294.144 294.144 285.728-285.728a31.968 31.968 0 1 1 45.248 45.248l-308.32 308.352z"  horiz-adv-x="1024" />

    
    <glyph glyph-name="trash" unicode="&#58894;" d="M713.1-18.299999999999955H309.9c-51.5 0-93.4 41.7-93.4 92.7V633.9c0 17.2 13.9 31.1 31.1 31.1h527.9c17.2 0 31.1-13.9 31.1-31.1v-559.4c-0.1-51.2-41.9-92.8-93.5-92.8z m-434.4 621v-528.3c0-16.9 13.9-30.5 31.1-30.5h403.3c17.2 0 31.1 13.7 31.1 30.5V602.7H278.7z m0 0M864.3 602.7H158.6c-17.2 0-31.1 13.9-31.1 31.1s13.9 31.1 31.1 31.1h705.7c17.2 0 31.1-13.9 31.1-31.1 0.1-17-13.9-31.1-31.1-31.1z m0 0M667.1 602.7H355.8c-9.9 0-19.2 4.7-25 12.7-5.9 8-7.6 18.2-4.7 27.6l38.8 126.2c4.1 13.1 16.1 22 29.7 22h233.5c13.7 0 25.7-8.9 29.7-22l39-126.2c2.9-9.4 1.2-19.7-4.7-27.6-5.8-8-15-12.7-25-12.7zM398 665h227l-19.7 64H417.7L398 665z m30.5-538.9c-17.2 0-31.1 13.9-31.1 31.1V489.5c0 17.2 13.9 31.1 31.1 31.1 17.2 0 31.1-13.9 31.1-31.1v-332.1c-0.1-17.2-14-31.3-31.1-31.3z m166 0c-17.2 0-31.1 13.9-31.1 31.1V489.5c0 17.2 13.9 31.1 31.1 31.1 17.2 0 31.1-13.9 31.1-31.1v-332.1c0.1-17.2-14-31.3-31.1-31.3z m0 0"  horiz-adv-x="1024" />

    
    <glyph glyph-name="time-circle" unicode="&#59268;" d="M512 832C264.6 832 64 631.4 64 384s200.6-448 448-448 448 200.6 448 448S759.4 832 512 832z m0-820c-205.4 0-372 166.6-372 372s166.6 372 372 372 372-166.6 372-372-166.6-372-372-372zM686.7 257.4L544.1 360.5V608c0 4.4-3.6 8-8 8H488c-4.4 0-8-3.6-8-8v-275.4c0-2.6 1.2-5 3.3-6.5l165.4-120.6c3.6-2.6 8.6-1.8 11.2 1.7l28.6 39c2.6 3.7 1.8 8.7-1.8 11.2z"  horiz-adv-x="1024" />

    
    <glyph glyph-name="sync" unicode="&#59270;" d="M168 391.8c1 43.7 10 86.1 26.9 126 17.3 41 42.1 77.7 73.7 109.4S337 683.7 378 701c42.4 17.9 87.4 27 133.9 27s91.5-9.1 133.8-27c40.9-17.3 77.7-42.1 109.3-73.8 9.9-9.9 19.2-20.4 27.8-31.4l-60.2-47c-5.3-4.1-3.5-12.5 3-14.1l175.7-43c5-1.2 9.9 2.6 9.9 7.7l0.8 180.9c0 6.7-7.7 10.5-12.9 6.3l-56.4-44.1C765.8 740.9 646.2 804 511.8 804 282.7 804 96.3 620.4 92 392.2c-0.1-4.5 3.5-8.2 8-8.2h60c4.4 0 7.9 3.5 8 7.8zM924 384h-60c-4.4 0-7.9-3.5-8-7.8-1-43.7-10-86.1-26.9-126-17.3-41-42.1-77.8-73.7-109.4S687 84.3 646 67c-42.4-17.9-87.4-27-133.9-27s-91.5 9.1-133.9 27c-40.9 17.3-77.7 42.1-109.3 73.8-9.9 9.9-19.2 20.4-27.8 31.4l60.2 47c5.3 4.1 3.5 12.5-3 14.1l-175.7 43c-5 1.2-9.9-2.6-9.9-7.7l-0.7-181c0-6.7 7.7-10.5 12.9-6.3l56.4 44.1C258.2 27.1 377.8-36 512.2-36c229.2 0 415.5 183.7 419.8 411.8 0.1 4.5-3.5 8.2-8 8.2z"  horiz-adv-x="1024" />

    
    <glyph glyph-name="reload" unicode="&#59272;" d="M909.1 686.7l-56.4-44.1C775.8 740.9 656.2 804 521.9 804 290 804 102.3 616.5 102 384.5 101.7 152.3 289.8-36 521.9-36c181.3 0 335.8 115 394.6 276.1 1.5 4.2-0.7 8.9-4.9 10.3l-56.7 19.5c-4.1 1.4-8.6-0.7-10.1-4.8-1.8-5-3.8-10-5.9-14.9-17.3-41-42.1-77.8-73.7-109.4-31.6-31.6-68.4-56.4-109.3-73.8-42.3-17.9-87.4-27-133.8-27-46.5 0-91.5 9.1-133.8 27-40.9 17.3-77.7 42.1-109.3 73.8-31.6 31.6-56.4 68.4-73.7 109.4-17.9 42.4-27 87.4-27 133.9s9.1 91.5 27 133.9c17.3 41 42.1 77.8 73.7 109.4 31.6 31.6 68.4 56.4 109.3 73.8 42.3 17.9 87.4 27 133.8 27 46.5 0 91.5-9.1 133.8-27 40.9-17.3 77.7-42.1 109.3-73.8 9.9-9.9 19.2-20.4 27.8-31.4l-60.2-47c-5.3-4.1-3.5-12.5 3-14.1l175.6-43c5-1.2 9.9 2.6 9.9 7.7l0.8 180.9c-0.1 6.6-7.8 10.3-13 6.2z"  horiz-adv-x="1024" />

    
    <glyph glyph-name="reloadtime" unicode="&#59273;" d="M536.1 623H488c-4.4 0-8-3.6-8-8v-275.3c0-2.6 1.2-5 3.3-6.5l165.3-120.7c3.6-2.6 8.6-1.9 11.2 1.7l28.6 39c2.7 3.7 1.9 8.7-1.7 11.2L544.1 367.5V615c0 4.4-3.6 8-8 8zM755.9 547.8l156.8-38.3c5-1.2 9.9 2.6 9.9 7.7l0.8 161.5c0 6.7-7.7 10.5-12.9 6.3L752.9 561.9c-5.3-4.2-3.5-12.5 3-14.1zM923.6 246.7l-56.7 19.5c-4.1 1.4-8.6-0.7-10.1-4.8-1.9-5.1-3.9-10.1-6-15.1-17.8-42.1-43.3-80-75.9-112.5-32.5-32.5-70.4-58.1-112.5-75.9-43.6-18.4-89.9-27.8-137.7-27.8-47.8 0-94.1 9.3-137.7 27.8-42.1 17.8-80 43.4-112.5 75.9-32.5 32.5-58 70.4-75.9 112.5C180.3 289.8 171 336.2 171 384c0 47.8 9.3 94.2 27.8 137.8 17.8 42.1 43.3 80 75.9 112.5 32.5 32.5 70.4 58.1 112.5 75.9C430.6 728.7 477 738 524.8 738s94.1-9.3 137.7-27.8c42.1-17.8 80-43.4 112.5-75.9 10.2-10.3 19.8-21 28.6-32.3l59.8 46.8C784.7 749.4 662.2 814.1 524.6 814 285 813.9 92.6 619.3 95 379.6 97.4 144.1 288.9-46 524.8-46c185.5 0 343.5 117.6 403.7 282.3 1.5 4.2-0.7 8.9-4.9 10.4z"  horiz-adv-x="1024" />

    
    <glyph glyph-name="poweroff" unicode="&#59276;" d="M705.6 771.1c-5.3 2.7-11.6-1.2-11.6-7.2v-64.2c0-5.5 2.9-10.6 7.5-13.6 22.4-14.1 43.2-30.7 62.2-49.8 32.7-32.8 58.4-70.9 76.3-113.3 18.5-43.9 27.9-90.5 27.9-138.7 0-48.1-9.4-94.8-27.9-138.7-17.9-42.4-43.6-80.5-76.3-113.3-32.7-32.8-70.8-58.5-113.2-76.4-43.8-18.6-90.5-28-138.5-28s-94.7 9.4-138.5 28c-42.4 17.9-80.5 43.6-113.2 76.4-32.7 32.8-58.4 70.9-76.3 113.3-18.5 43.9-27.9 90.5-27.9 138.7 0 48.1 9.4 94.8 27.9 138.7 17.9 42.4 43.6 80.5 76.3 113.3 19 19 39.8 35.6 62.2 49.8 4.7 2.9 7.5 8.1 7.5 13.6V764c0 6-6.3 9.8-11.6 7.2C178.5 700.8 82 556.7 80 389.7 77.2 150.9 272.5-47.5 511.2-48c239-0.5 432.8 193.3 432.8 432.4 0 169.2-97 315.7-238.4 386.7zM480 336h64c4.4 0 8 3.6 8 8V808c0 4.4-3.6 8-8 8h-64c-4.4 0-8-3.6-8-8v-464c0-4.4 3.6-8 8-8z"  horiz-adv-x="1024" />

    
    <glyph glyph-name="logout" unicode="&#59277;" d="M868 164h-70.3c-4.8 0-9.3-2.1-12.3-5.8-7-8.5-14.5-16.7-22.4-24.5-32.6-32.5-70.5-58.1-112.7-75.9-43.6-18.4-90-27.8-137.9-27.8-47.9 0-94.3 9.4-137.9 27.8-42.2 17.8-80.1 43.4-112.7 75.9-32.6 32.5-58.1 70.4-76 112.5C167.3 289.8 158 336.1 158 384s9.4 94.2 27.8 137.8c17.8 42.1 43.4 80 76 112.5s70.5 58.1 112.7 75.9c43.6 18.4 90 27.8 137.9 27.8 47.9 0 94.3-9.3 137.9-27.8 42.2-17.8 80.1-43.4 112.7-75.9 7.9-7.9 15.3-16.1 22.4-24.5 3-3.7 7.6-5.8 12.3-5.8H868c6.3 0 10.2 7 6.7 12.3C798 735.5 663.8 814.4 511.3 814 271.7 813.4 79.6 618.9 82 379.6 84.4 144.1 276.2-46 512.4-46c152.1 0 285.7 78.8 362.3 197.7 3.4 5.3-0.4 12.3-6.7 12.3zM956.9 390.3L815 502.3c-5.3 4.2-13 0.4-13-6.3v-76H488c-4.4 0-8-3.6-8-8v-56c0-4.4 3.6-8 8-8h314v-76c0-6.7 7.8-10.5 13-6.3l141.9 112c4.1 3.2 4.1 9.4 0 12.6z"  horiz-adv-x="1024" />

    
    <glyph glyph-name="folder" unicode="&#59345;" d="M880 597.6H521L403.7 709.8c-1.5 1.4-3.5 2.2-5.5 2.2H144c-17.7 0-32-14.3-32-32v-592c0-17.7 14.3-32 32-32h736c17.7 0 32 14.3 32 32V565.6c0 17.7-14.3 32-32 32zM840 128H184V640h188.5l119.6-114.4H840V128z"  horiz-adv-x="1024" />

    
    <glyph glyph-name="folder-open" unicode="&#59346;" d="M928 452H820V565.6c0 17.7-14.3 32-32 32H473L355.7 709.8c-1.5 1.4-3.5 2.2-5.5 2.2H96c-17.7 0-32-14.3-32-32v-592c0-17.7 14.3-32 32-32h698c13 0 24.8 7.9 29.7 20l134 332c1.5 3.8 2.3 7.9 2.3 12 0 17.7-14.3 32-32 32zM136 640h188.5l119.6-114.4H748V452H238c-13 0-24.8-7.9-29.7-20L136 252.8V640z m635.3-512H159l103.3 256h612.4L771.3 128z"  horiz-adv-x="1024" />

    
    <glyph glyph-name="folder-add" unicode="&#59347;" d="M484 452.9V368h-84.5c-4.1 0-7.5-3.1-7.5-7v-42c0-3.8 3.4-7 7.5-7H484v-84.9c0-3.9 3.2-7.1 7-7.1h42c3.9 0 7 3.2 7 7.1V312h84.5c4.1 0 7.5 3.2 7.5 7v42c0 3.9-3.4 7-7.5 7H540v84.9c0 3.9-3.1 7.1-7 7.1h-42c-3.8 0-7-3.2-7-7.1zM880 597.6H521L403.7 709.8c-1.5 1.4-3.5 2.2-5.5 2.2H144c-17.7 0-32-14.3-32-32v-592c0-17.7 14.3-32 32-32h736c17.7 0 32 14.3 32 32V565.6c0 17.7-14.3 32-32 32zM840 128H184V640h188.5l119.6-114.4H840V128z"  horiz-adv-x="1024" />

    
    <glyph glyph-name="carryout" unicode="&#59348;" d="M880 712H712v64c0 4.4-3.6 8-8 8h-56c-4.4 0-8-3.6-8-8v-64H384v64c0 4.4-3.6 8-8 8h-56c-4.4 0-8-3.6-8-8v-64H144c-17.7 0-32-14.3-32-32v-664c0-17.7 14.3-32 32-32h736c17.7 0 32 14.3 32 32V680c0 17.7-14.3 32-32 32z m-40-656H184V640h128v-48c0-4.4 3.6-8 8-8h56c4.4 0 8 3.6 8 8v48h256v-48c0-4.4 3.6-8 8-8h56c4.4 0 8 3.6 8 8v48h128v-584zM688 476h-55.2c-5.1 0-10-2.5-13-6.6L468.9 261.6l-64.7 89c-3 4.1-7.8 6.6-13 6.6H336c-6.5 0-10.3-7.4-6.5-12.7l126.4-174c6.4-8.8 19.6-8.8 26 0l212.6 292.7c3.8 5.4 0 12.8-6.5 12.8z"  horiz-adv-x="1024" />

    
    <glyph glyph-name="calendar-check" unicode="&#59349;" d="M928 672H768v56c0 4.4-3.6 8-8 8h-56c-4.4 0-8-3.6-8-8v-56H548v56c0 4.4-3.6 8-8 8h-56c-4.4 0-8-3.6-8-8v-56H328v56c0 4.4-3.6 8-8 8h-56c-4.4 0-8-3.6-8-8v-56H96c-17.7 0-32-14.3-32-32v-576c0-17.7 14.3-32 32-32h832c17.7 0 32 14.3 32 32V640c0 17.7-14.3 32-32 32z m-40-568H136V600h120v-56c0-4.4 3.6-8 8-8h56c4.4 0 8 3.6 8 8v56h148v-56c0-4.4 3.6-8 8-8h56c4.4 0 8 3.6 8 8v56h148v-56c0-4.4 3.6-8 8-8h56c4.4 0 8 3.6 8 8v56h120v-496zM416 400H232c-4.4 0-8-3.6-8-8v-48c0-4.4 3.6-8 8-8h184c4.4 0 8 3.6 8 8v48c0 4.4-3.6 8-8 8zM416 264H232c-4.4 0-8-3.6-8-8v-48c0-4.4 3.6-8 8-8h184c4.4 0 8 3.6 8 8v48c0 4.4-3.6 8-8 8zM724.2 441.4L620.6 297.7l-52.8 73.1c-3 4.2-7.8 6.6-12.9 6.6H500c-6.5 0-10.3-7.4-6.5-12.7l114.1-158.2c6.4-8.8 19.4-8.8 25.8 0l165 228.7c3.8 5.3 0 12.7-6.5 12.7H737c-5 0.1-9.8-2.4-12.8-6.5z"  horiz-adv-x="1024" />

    
    <glyph glyph-name="calendar" unicode="&#59350;" d="M880 712H712v64c0 4.4-3.6 8-8 8h-56c-4.4 0-8-3.6-8-8v-64H384v64c0 4.4-3.6 8-8 8h-56c-4.4 0-8-3.6-8-8v-64H144c-17.7 0-32-14.3-32-32v-664c0-17.7 14.3-32 32-32h736c17.7 0 32 14.3 32 32V680c0 17.7-14.3 32-32 32z m-40-656H184V436h656v-380zM184 504V640h128v-48c0-4.4 3.6-8 8-8h56c4.4 0 8 3.6 8 8v48h256v-48c0-4.4 3.6-8 8-8h56c4.4 0 8 3.6 8 8v48h128v-136H184z"  horiz-adv-x="1024" />

    
    <glyph glyph-name="scan" unicode="&#59351;" d="M136 512h56c4.4 0 8 3.6 8 8V696h176c4.4 0 8 3.6 8 8v56c0 4.4-3.6 8-8 8H196c-37.6 0-68-30.4-68-68v-180c0-4.4 3.6-8 8-8zM648 696h176v-176c0-4.4 3.6-8 8-8h56c4.4 0 8 3.6 8 8V700c0 37.6-30.4 68-68 68H648c-4.4 0-8-3.6-8-8v-56c0-4.4 3.6-8 8-8zM376 72H200V248c0 4.4-3.6 8-8 8h-56c-4.4 0-8-3.6-8-8v-180c0-37.6 30.4-68 68-68h180c4.4 0 8 3.6 8 8v56c0 4.4-3.6 8-8 8zM888 256h-56c-4.4 0-8-3.6-8-8v-176H648c-4.4 0-8-3.6-8-8v-56c0-4.4 3.6-8 8-8h180c37.6 0 68 30.4 68 68V248c0 4.4-3.6 8-8 8zM904 420H120c-4.4 0-8-3.6-8-8v-56c0-4.4 3.6-8 8-8h784c4.4 0 8 3.6 8 8v56c0 4.4-3.6 8-8 8z"  horiz-adv-x="1024" />

    
    <glyph glyph-name="mail" unicode="&#59358;" d="M928 736H96c-17.7 0-32-14.3-32-32v-640c0-17.7 14.3-32 32-32h832c17.7 0 32 14.3 32 32V704c0 17.7-14.3 32-32 32z m-40-110.8V104H136V625.2l-27.6 21.5 39.3 50.5 42.8-33.3h643.1l42.8 33.3 39.3-50.5-27.7-21.5zM833.6 664L512 414 190.4 664l-42.8 33.3-39.3-50.5 27.6-21.5 341.6-265.6c20.2-15.7 48.5-15.7 68.7 0L888 625.2l27.6 21.5-39.3 50.5-42.7-33.2z"  horiz-adv-x="1024" />

    
    <glyph glyph-name="man" unicode="&#59362;" d="M874 776H622c-3.3 0-6-2.7-6-6v-56c0-3.3 2.7-6 6-6h160.4L583.1 508.7c-50 38.5-111 59.3-175.1 59.3-76.9 0-149.3-30-203.6-84.4S120 356.9 120 280s30-149.3 84.4-203.6C258.7 22 331.1-8 408-8s149.3 30 203.6 84.4C666 130.7 696 203.1 696 280c0 64.1-20.8 124.9-59.2 174.9L836 654.1V494c0-3.3 2.7-6 6-6h56c3.3 0 6 2.7 6 6V746c0 16.5-13.5 30-30 30zM408 68c-116.9 0-212 95.1-212 212s95.1 212 212 212 212-95.1 212-212-95.1-212-212-212z"  horiz-adv-x="1024" />

    
    <glyph glyph-name="shrink" unicode="&#60435;" d="M919.264-9.984000000000037l-138.912 138.912C851.808 203.67999999999995 896 304.672 896 416c0 229.376-186.624 416-416 416S64 645.376 64 416s186.624-416 416-416c95.008 0 182.432 32.384 252.544 86.208l141.44-141.44a31.904 31.904 0 0 1 45.248 0 32 32 0 0 1 0.032 45.248zM128 416C128 610.0799999999999 285.92 768 480 768s352-157.92 352-352-157.92-352-352-352S128 221.91999999999996 128 416zM625.792 448H336a32 32 0 0 1 0-64h289.792a32 32 0 1 1 0 64z"  horiz-adv-x="1024" />

    
    <glyph glyph-name="magnify" unicode="&#60436;" d="M919.264-9.984000000000037l-138.912 138.912C851.808 203.67999999999995 896 304.672 896 416c0 229.376-186.624 416-416 416S64 645.376 64 416s186.624-416 416-416c95.008 0 182.432 32.384 252.544 86.208l141.44-141.44a31.904 31.904 0 0 1 45.248 0 32 32 0 0 1 0.032 45.248zM128 416C128 610.0799999999999 285.92 768 480 768s352-157.92 352-352-157.92-352-352-352S128 221.91999999999996 128 416zM625.792 448H512v112a32 32 0 0 1-64 0V448h-112a32 32 0 0 1 0-64H448v-112a32 32 0 1 1 64 0V384h113.792a32 32 0 1 1 0 64z"  horiz-adv-x="1024" />

    
    <glyph glyph-name="restore" unicode="&#60437;" d="M912 848h-800c-35.296 0-64-28.704-64-64v-800c0-35.296 28.704-64 64-64h800c35.296 0 64 28.704 64 64v800c0 35.296-28.704 64-64 64z m-800-864v800h800l0.064-800H112zM368.896 704a32 32 0 0 1-32-32v-105.888H224a32 32 0 0 1 0-64h144.896a32 32 0 0 1 32 32V672a32 32 0 0 1-32 32zM784.864 566.1120000000001H672V672a32 32 0 1 1-64 0v-137.888a32 32 0 0 1 32-32h144.864a32 32 0 1 1 0 64zM368.896 256H224a32 32 0 1 1 0-64h112.896v-105.92a32 32 0 1 1 64 0V224a32 32 0 0 1-32 32zM784.864 256H640a32 32 0 0 1-32-32v-137.92a32 32 0 1 1 64 0V192h112.864a32 32 0 1 1 0 64z"  horiz-adv-x="1024" />

    
    <glyph glyph-name="fullscreen" unicode="&#60438;" d="M368.896 704H224a32 32 0 0 1-32-32v-137.888a32 32 0 0 1 64 0V640h112.896a32 32 0 0 1 0 64zM784.864 704H640a32 32 0 1 1 0-64h112.864v-105.888a32 32 0 1 1 64 0V672a32 32 0 0 1-32 32zM368.896 118.08000000000004H256V224a32 32 0 1 1-64 0v-137.92a32 32 0 0 1 32-32h144.896a32 32 0 1 1 0 64zM784.864 256a32 32 0 0 1-32-32v-105.92H640a32 32 0 1 1 0-64h144.864a32 32 0 0 1 32 32V224a32 32 0 0 1-32 32zM912 848h-800c-35.296 0-64-28.704-64-64v-800c0-35.296 28.704-64 64-64h800c35.296 0 64 28.704 64 64v800c0 35.296-28.704 64-64 64z m-800-864v800h800l0.064-800H112z"  horiz-adv-x="1024" />

    
    <glyph glyph-name="DOC" unicode="&#60439;" d="M927.68 197.088c0 0.576 0.32 1.056 0.32 1.664V763.072C928 818.72 883.552 864 828.928 864H195.04C140.448 864 96 818.72 96 763.072v-758.144C96-50.72 140.448-96 195.04-96h480.032a31.872 31.872 0 0 1 20.96 7.84l153.856 133.632a32 32 0 1 1-41.92 48.32L704 3.488v119.552c0 20.384 15.712 36.96 35.072 36.96h157.632a32 32 0 0 1 32 32c-0.032 1.792-0.768 3.36-1.024 5.088zM640 123.072V-32H195.04C175.712-32 160-15.424 160 4.928V763.072C160 783.424 175.712 800 195.04 800h633.888C848.288 800 864 783.424 864 763.072V224h-124.928C684.448 224 640 178.72 640 123.072zM731.36 608h-5.216c-9.536 0-17.504-4.192-23.84-12.576-22.56-40.768-50.464-95.296-83.712-163.52l-70.272 141.376C539.968 596.448 528.384 608 513.632 608h-7.808c-10.112 0-18.656-5.056-25.6-15.168-36.736-69.408-64.032-123.04-81.984-160.928l-70.272 141.376C319.904 596.448 308.32 608 293.312 608h-6.944l-6.528-1.728c-15.872-8.096-23.84-17.632-23.84-28.64v-7.808l0.864-5.216c43.68-92.256 77.792-162.208 102.368-209.92 9.824-23.136 21.408-34.688 34.688-34.688h6.08c8.96 0 17.344 4.192 25.152 12.576l83.264 164.384h0.864c30.368-63.904 51.776-107.712 64.192-131.424 12.736-30.368 26.336-45.536 40.8-45.536h6.08c9.824 0 18.784 5.056 26.88 15.168l116.256 231.168v10.432l-0.864 3.456c-9.856 18.528-20.256 27.776-31.264 27.776z"  horiz-adv-x="1024" />

    
    <glyph glyph-name="button" unicode="&#59266;" d="M800 640h-64a32 32 0 0 1-31.84 32H159.84C142.4 672 128 657.568 128 639.7760000000001v-415.552A32 32 0 0 1 159.84 192H160v-64H128c-35.328 0-64 28.48-64 63.904V672.096C64 707.392 92.864 736 128 736h608c35.328 0 64-28.48 64-63.904V640zM192 544.1600000000001A64 64 0 0 0 256.16 608h639.68A64 64 0 0 0 960 544.1600000000001v-448.32A64 64 0 0 0 895.84 32H256.16A64 64 0 0 0 192 95.84000000000003v448.32z m64-32.384v-383.552A31.968 31.968 0 0 1 287.744 96h576.512c17.184 0 31.744 14.4 31.744 32.224V511.776A31.968 31.968 0 0 1 864.256 544H287.744C270.56 544 256 529.6 256 511.776z m219.232-238.4c0-12.16-1.92-23.168-5.76-32.96-3.808-9.792-9.12-18.048-15.872-24.8-6.752-6.72-14.592-11.904-23.52-15.488a76.064 76.064 0 0 0-28.576-5.344H320V448h72.384c8.576 0 16.64-1.6 24.192-4.768 7.552-3.2 14.24-7.616 20.128-13.28 5.856-5.696 10.464-12.704 13.856-21.056a73.824 73.824 0 0 0 3.872-39.872c-0.768-4.256-1.92-8.288-3.36-12.128-1.472-3.84-3.328-7.328-5.6-10.496a27.776 27.776 0 0 0-7.776-7.552c4.512-1.6 9.024-4.48 13.536-8.736 4.48-4.224 8.576-9.28 12.16-15.072a80.736 80.736 0 0 0 11.84-41.664z m-50.72 0c0 11.104-3.264 19.36-9.824 24.8a33.568 33.568 0 0 1-21.984 8.128h-25.024v-65.472h25.024c4.064 0 8 0.64 11.84 1.984a29.184 29.184 0 0 1 10.144 5.952 29.28 29.28 0 0 1 7.104 10.112c1.824 4.096 2.72 8.928 2.72 14.496z m-16.576 103.584c0 9.28-2.432 15.872-7.264 19.84a25.216 25.216 0 0 1-16.416 5.952h-16.576v-51.2h16.576c6.08 0 11.552 1.92 16.416 5.76 4.832 3.84 7.264 10.368 7.264 19.648z m166.528 21.824v-204h-52.064v204.384h-65.28V448h182.304v-49.216h-64.96zM792.16 192l-78.336 143.424v-140.64H661.44V448h42.272l75.904-128v128H832v-256h-39.84z"  horiz-adv-x="1024" />

    
    <glyph glyph-name="folder-add-fill" unicode="&#59486;" d="M880 597.6H521L403.7 709.8c-1.5 1.4-3.5 2.2-5.5 2.2H144c-17.7 0-32-14.3-32-32v-592c0-17.7 14.3-32 32-32h736c17.7 0 32 14.3 32 32V565.6c0 17.7-14.3 32-32 32zM632 319c0-3.8-3.4-7-7.5-7H540v-84.9c0-3.9-3.2-7.1-7-7.1h-42c-3.8 0-7 3.2-7 7.1V312h-84.5c-4.1 0-7.5 3.2-7.5 7v42c0 3.8 3.4 7 7.5 7H484v84.9c0 3.9 3.2 7.1 7 7.1h42c3.8 0 7-3.2 7-7.1V368h84.5c4.1 0 7.5-3.2 7.5-7v-42z"  horiz-adv-x="1024" />

    
    <glyph glyph-name="folder-fill" unicode="&#59487;" d="M880 597.6H521L403.7 709.8c-1.5 1.4-3.5 2.2-5.5 2.2H144c-17.7 0-32-14.3-32-32v-592c0-17.7 14.3-32 32-32h736c17.7 0 32 14.3 32 32V565.6c0 17.7-14.3 32-32 32z"  horiz-adv-x="1024" />

    
    <glyph glyph-name="folder-open-fill" unicode="&#59488;" d="M928 452H820V565.6c0 17.7-14.3 32-32 32H473L355.7 709.8c-1.5 1.4-3.5 2.2-5.5 2.2H96c-17.7 0-32-14.3-32-32v-592c0-17.7 14.3-32 32-32h698c13 0 24.8 7.9 29.7 20l134 332c1.5 3.8 2.3 7.9 2.3 12 0 17.7-14.3 32-32 32z m-180 0H238c-13 0-24.8-7.9-29.7-20L136 252.8V640h188.5l119.6-114.4H748V452z"  horiz-adv-x="1024" />

    
    <glyph glyph-name="google" unicode="&#59514;" d="M881 453.6H519.7v-148.5h206.4c-8.9-48-35.9-88.6-76.6-115.8-34.4-23-78.3-36.6-129.9-36.6-99.9 0-184.4 67.5-214.6 158.2-7.6 23-12 47.6-12 72.9s4.4 49.9 12 72.9c30.3 90.6 114.8 158.1 214.7 158.1 56.3 0 106.8-19.4 146.6-57.4l110 110.1c-66.5 62-153.2 100-256.6 100-149.9 0-279.6-86-342.7-211.4-26-51.8-40.8-110.4-40.8-172.4S151 263.2 177 211.4C240.1 86 369.8 0 519.7 0c103.6 0 190.4 34.4 253.8 93 72.5 66.8 114.4 165.2 114.4 282.1 0 27.2-2.4 53.3-6.9 78.5z"  horiz-adv-x="1024" />

    
    <glyph glyph-name="IE" unicode="&#59515;" d="M852.6 528.4c16.3 36.9 32.1 90.7 32.1 131.8 0 109.1-119.5 147.6-314.5 57.9-161.4 10.8-316.8-110.5-355.6-279.7 46.3 52.3 117.4 123.4 183 151.7C316.1 517.7 246.7 426 194 330.4c-31.1-56.9-66-148.8-66-217.5 0-147.9 139.3-129.8 270.4-63 47.1-23.1 99.8-23.4 152.5-23.4 145.7 0 276.4 81.4 325.2 219H694.9c-78.8-132.9-295.2-79.5-295.2 71.2h493.2c9.6 65.4-2.5 143.6-40.3 211.7zM224.8 247.7c26.6-76.7 80.6-143.8 150.4-185-133.1-73.4-259.9-43.6-150.4 185z m174 163.3c3 82.7 75.4 142.3 156 142.3 80.1 0 153-59.6 156-142.3h-312z m276.8 281.4c32.1 15.4 72.8 33 108.8 33 47.1 0 81.4-32.6 81.4-80.6 0-30-11.1-73.5-21.9-101.8-39.3 63.5-98.9 122.4-168.3 149.4z"  horiz-adv-x="1024" />

    
    <glyph glyph-name="alipay" unicode="&#59516;" d="M789 285.7c-38.7 12.9-90.7 32.7-148.5 53.6 34.8 60.3 62.5 129 80.7 203.6H530.5v68.6h233.6v38.3H530.5V764h-95.4c-16.7 0-16.7-16.5-16.7-16.5v-97.8H182.2v-38.3h236.3v-68.6H223.4v-38.3h378.4c-13.8-47.6-32.4-92.3-54.5-132.9-122.8 40.4-253.8 73.2-336.1 53-52.6-13-86.5-36.1-106.5-60.3-91.4-111-25.9-279.6 167.2-279.6C386 84.8 496 148.4 581.2 253 708.3 192 960 87.3 960 87.3V236.6s-31.6 2.5-171 49.1zM253.9 149.4c-150.5 0-195 118.3-120.6 183.1 24.8 21.9 70.2 32.6 94.4 35 89.4 8.8 172.2-25.2 269.9-72.8-68.8-89.5-156.3-145.3-243.7-145.3z"  horiz-adv-x="1024" />

    
    <glyph glyph-name="taobao" unicode="&#59517;" d="M168.5 622.3a68.7 68.7 0 1 1 137.4 0 68.7 68.7 0 1 1-137.4 0ZM898.5 543.1s-23.7 184.4-426.9 70.1c17.3 30 25.6 49.5 25.6 49.5L396.4 691s-40.6-132.6-113-194.4c0 0 70.1-40.6 69.4-39.4 20.1 20.1 38.2 40.6 53.7 60.4 16.1 7 31.5 13.6 46.7 19.8-18.6-33.5-48.7-83.8-78.8-115.6l42.4-37s28.8 27.7 60.4 61.2h36v-61.8H372.9v-49.5h140.3v-118.5c-1.7 0-3.6 0-5.4 0.2-15.4 0.7-39.5 3.3-49 18.2-11.5 18.1-3 51.5-2.4 71.9h-97l-3.4-1.8s-35.5-159.1 102.3-155.5c129.1-3.6 203 36 238.6 63.1l14.2-52.6 79.6 33.2-53.9 131.9-64.6-20.1 12.1-45.2c-16.6-12.4-35.6-21.7-56.2-28.4V334.7h137.1v49.5H628.1V446h137.6v49.5H521.3c17.6 21.4 31.5 41.1 35 53.6l-42.5 11.6c182.8 65.5 284.5 54.2 283.6-53.2v-282.8s10.8-97.1-100.4-90.1l-60.2 12.9-14.2-57.1S882.5 16 903.7 215.8c21.3 200-5.2 327.3-5.2 327.3zM191.1 524.8l-45.4-69.7 83.6-52.1s56-28.5 29.4-81.9C233.8 270.5 112 159.7 112 159.7l109-68.1c75.4 163.7 70.5 142 89.5 200.7 19.5 60.1 23.7 105.9-9.4 139.1-42.4 42.6-47 46.6-110 93.4z"  horiz-adv-x="1024" />

    
    <glyph glyph-name="zhihu" unicode="&#59518;" d="M564.7 665.9V93h60l25.2-71.4L756.3 93h131.5V665.9H564.7z m247.7-497h-59.9l-75.1-50.4-17.8 50.4h-18V587.7h170.7v-418.8zM526.1 409.1H393.3c2.1 44.9 4.3 104.3 6.6 172.9h130.9l-0.1 8.1c0 0.6-0.2 14.7-2.3 29.1-2.1 15-6.6 34.9-21 34.9H287.8c4.4 20.6 15.7 69.7 29.4 93.8l6.4 11.2-12.9 0.7c-0.8 0-19.6 0.9-41.4-10.6-35.7-19-51.7-56.4-58.7-84.4-18.4-73.1-44.6-123.9-55.7-145.6-3.3-6.4-5.3-10.2-6.2-12.8-1.8-4.9-0.8-9.8 2.8-13 10.5-9.5 38.2 2.9 38.5 3 0.6 0.3 1.3 0.6 2.2 1 13.9 6.3 55.1 25 69.8 84.5h56.7c0.7-32.2 3.1-138.4 2.9-172.9h-141l-2.1-1.5c-23.1-16.9-30.5-63.2-30.8-65.2l-1.4-9.2h167c-12.3-78.3-26.5-113.4-34-127.4-3.7-7-7.3-14-10.7-20.8-21.3-42.2-43.4-85.8-126.3-153.6-3.6-2.8-7-8-4.8-13.7 2.4-6.3 9.3-9.1 24.6-9.1 5.4 0 11.8 0.3 19.4 1 49.9 4.4 100.8 18 135.1 87.6 17 35.1 31.7 71.7 43.9 108.9L497 46l5 12c0.8 1.9 19 46.3 5.1 95.9l-0.5 1.8-108.1 123-22-16.6c6.4 26.1 10.6 49.9 12.5 71.1h158.7v8c0 40.1-18.5 63.9-19.2 64.9l-2.4 3z"  horiz-adv-x="1024" />

    
    <glyph glyph-name="aliwangwang" unicode="&#59519;" d="M868.2 518.6c-18.9 45.1-46.3 85.6-81.2 120.6-34.7 34.8-75.4 62.1-120.5 81.2-46.7 19.8-96.3 29.8-147.5 29.8-41.9 0-82.9-6.7-121.9-20C306 772.7 200.8 776 170.6 776c-2.2 0-7.4 0-9.4-0.2-11.9-0.4-22.8-6.5-29.2-16.4-6.5-9.9-7.7-22.4-3.4-33.5l64.3-161.6c-34.6-58.3-52.8-125.1-52.8-193.2 0-51.4 10-101 29.8-147.6 18.9-45 46.2-85.6 81.2-120.5 34.7-34.8 75.4-62.1 120.5-81.2C418.3 2 467.9-8 519-8c51.3 0 100.9 10.1 147.7 29.8 44.9 18.9 85.5 46.3 120.4 81.2 34.7 34.8 62.1 75.4 81.2 120.6 19.8 46.7 29.8 96.5 29.8 147.6-0.2 51.2-10.1 100.8-29.9 147.4z m-66.4-266.5c-15.5-36.8-37.7-69.7-65.9-98-28.4-28.5-61.3-50.7-97.7-65.9h-0.1c-38-16-78.3-24.2-119.9-24.2-41.6 0-81.8 8.2-119.7 24.2-36.7 15.5-69.6 37.8-97.8 66-28.4 28.5-50.6 61.4-65.8 97.8v0.1c-16 37.8-24.1 78.2-24.1 119.9 0 55.4 14.8 109.7 42.8 157l13.2 22.1-9.5 23.9L206 704c14.9-0.6 35.9-2.1 59.7-5.6 43.8-6.5 82.5-17.5 114.9-32.6l19-8.9 19.9 6.8c31.5 10.8 64.8 16.2 98.9 16.2 41.6 0 81.9-8.2 119.7-24.2 36.7-15.5 69.6-37.8 97.8-66 28.4-28.5 50.6-61.4 65.8-97.8l0.1-0.1 0.1-0.1c16-37.6 24.1-78 24.2-119.8-0.1-41.7-8.3-82-24.3-119.8zM681.1 531.8c-20.4 0-37.1-16.7-37.1-37.1v-55.1c0-20.4 16.6-37.1 37.1-37.1s37.1 16.7 37.1 37.1v55.1c0 20.5-16.7 37.1-37.1 37.1zM505.9 531.8c-20.5 0-37.1-16.7-37.1-37.1v-55.1c0-20.4 16.7-37.1 37.1-37.1 20.5 0 37.1 16.7 37.1 37.1v55.1c0 20.5-16.7 37.1-37.1 37.1z"  horiz-adv-x="1024" />

    
    <glyph glyph-name="instagram" unicode="&#59520;" d="M512 589.1c-113.5 0-205.1-91.6-205.1-205.1S398.5 178.9 512 178.9 717.1 270.5 717.1 384 625.5 589.1 512 589.1z m0-338.4c-73.4 0-133.3 59.9-133.3 133.3S438.6 517.3 512 517.3 645.3 457.4 645.3 384 585.4 250.7 512 250.7zM725.5 645.3c-26.5 0-47.9-21.4-47.9-47.9s21.4-47.9 47.9-47.9 47.9 21.3 47.9 47.9c-0.1 26.6-21.4 47.9-47.9 47.9zM911.8 384c0 55.2 0.5 109.9-2.6 165-3.1 64-17.7 120.8-64.5 167.6-46.9 46.9-103.6 61.4-167.6 64.5-55.2 3.1-109.9 2.6-165 2.6-55.2 0-109.9 0.5-165-2.6-64-3.1-120.8-17.7-167.6-64.5C132.6 669.7 118.1 613 115 549c-3.1-55.2-2.6-109.9-2.6-165s-0.5-109.9 2.6-165c3.1-64 17.7-120.8 64.5-167.6 46.9-46.9 103.6-61.4 167.6-64.5 55.2-3.1 109.9-2.6 165-2.6 55.2 0 109.9-0.5 165 2.6 64 3.1 120.8 17.7 167.6 64.5 46.9 46.9 61.4 103.6 64.5 167.6 3.2 55.1 2.6 109.8 2.6 165z m-88-235.8c-7.3-18.2-16.1-31.8-30.2-45.8-14.1-14.1-27.6-22.9-45.8-30.2C695.2 51.3 570.3 56 512 56c-58.3 0-183.3-4.7-235.9 16.1-18.2 7.3-31.8 16.1-45.8 30.2-14.1 14.1-22.9 27.6-30.2 45.8C179.3 200.8 184 325.7 184 384c0 58.3-4.7 183.3 16.1 235.9 7.3 18.2 16.1 31.8 30.2 45.8s27.6 22.9 45.8 30.2C328.7 716.7 453.7 712 512 712s183.3 4.7 235.9-16.1c18.2-7.3 31.8-16.1 45.8-30.2 14.1-14.1 22.9-27.6 30.2-45.8C844.7 567.3 840 442.3 840 384c0-58.3 4.7-183.2-16.2-235.8z"  horiz-adv-x="1024" />

    
    <glyph glyph-name="dingtalk" unicode="&#59521;" d="M573.7 643.5C422.5 698.6 201.3 799.3 201.3 799.3c-15.7 4.1-17.9-11.1-17.9-11.1-5-61.1 33.6-160.5 53.6-182.8 19.9-22.3 319.1-113.7 319.1-113.7S326 538.1 270.5 554.1c-55.6 16-37.9-17.8-37.9-17.8 11.4-61.7 64.9-131.8 107.2-138.4 42.2-6.6 220.1-4 220.1-4s-35.5-4.1-93.2-11.9c-42.7-5.8-97-12.5-111.1-17.8-33.1-12.5 24-62.6 24-62.6 84.7-76.8 129.7-50.5 129.7-50.5 33.3 10.7 61.4 18.5 85.2 24.2L565 152.9h84.6L603-32l205.3 271.9H700.8l22.3 38.7c0.3-0.5 0.4-0.8 0.4-0.8S799.8 399.9 829 462.2l0.6 1h-0.1c5 10.8 8.6 19.7 10 25.8 17 71.3-114.5 99.4-265.8 154.5z"  horiz-adv-x="1024" />

    
    </font>
</defs>
</svg>
